  0
SECTION
  2
HEADER
  9
$ACADVER
  1
AC1018
  9
$ACADMAINTVER
 70
    38
  9
$DWGCODEPAGE
  3
ANSI_1252
  9
$TITLE
  1
                MNEDC175 & 250
  9
$AUTHOR
  1
Robin Gudgel
  9
$REVISIONNUMBER
  1
NEW
  9
$CUSTOMPROPERTYTAG
  1
Manager
  9
$CUSTOMPROPERTY
  1

  9
$CUSTOMPROPERTYTAG
  1
Company
  9
$CUSTOMPROPERTY
  1
MIDNITE SOLAR
  9
$CUSTOMPROPERTYTAG
  1
Category
  9
$CUSTOMPROPERTY
  1

  9
$CUSTOMPROPERTYTAG
  1
Part Number
  9
$CUSTOMPROPERTY
  1
MNEDC250 DIMS
  9
$CUSTOMPROPERTYTAG
  1
Description
  9
$CUSTOMPROPERTY
  1

  9
$CUSTOMPROPERTYTAG
  1
Project
  9
$CUSTOMPROPERTY
  1

  9
$CUSTOMPROPERTYTAG
  1
Designer
  9
$CUSTOMPROPERTY
  1
Robin
  9
$CUSTOMPROPERTYTAG
  1
Engineer
  9
$CUSTOMPROPERTY
  1

  9
$CUSTOMPROPERTYTAG
  1
Authority
  9
$CUSTOMPROPERTY
  1

  9
$CUSTOMPROPERTYTAG
  1
Cost Center
  9
$CUSTOMPROPERTY
  1

  9
$CUSTOMPROPERTYTAG
  1
Vendor
  9
$CUSTOMPROPERTY
  1

  9
$CUSTOMPROPERTYTAG
  1
User Status
  9
$CUSTOMPROPERTY
  1

  9
$CUSTOMPROPERTYTAG
  1
Design Status
  9
$CUSTOMPROPERTY
  1
WorkInProgress
  9
$CUSTOMPROPERTYTAG
  1
Checked by
  9
$CUSTOMPROPERTY
  1

  9
$CUSTOMPROPERTYTAG
  1
Engr Approved by
  9
$CUSTOMPROPERTY
  1

  9
$CUSTOMPROPERTYTAG
  1
Mfg Approved by
  9
$CUSTOMPROPERTY
  1

  9
$INSBASE
 10
0.0
 20
0.0
 30
0.0
  9
$EXTMIN
 10
0.0
 20
0.0
 30
0.0
  9
$EXTMAX
 10
22.0
 20
17.0
 30
0.0
  9
$LIMMIN
 10
0.0
 20
0.0
  9
$LIMMAX
 10
22.0
 20
17.0
  9
$ORTHOMODE
 70
     0
  9
$REGENMODE
 70
     1
  9
$FILLMODE
 70
     1
  9
$QTEXTMODE
 70
     0
  9
$MIRRTEXT
 70
     0
  9
$LTSCALE
 40
1.0
  9
$ATTMODE
 70
     1
  9
$TEXTSIZE
 40
0.2
  9
$TRACEWID
 40
0.05
  9
$TEXTSTYLE
  7
Standard
  9
$CLAYER
  8
0
  9
$CELTYPE
  6
ByLayer
  9
$CECOLOR
 62
   256
  9
$CELTSCALE
 40
1.0
  9
$DISPSILH
 70
     0
  9
$DIMSCALE
 40
1.0
  9
$DIMASZ
 40
0.0708661417322835
  9
$DIMEXO
 40
0.0625
  9
$DIMDLI
 40
0.38
  9
$DIMRND
 40
0.0
  9
$DIMDLE
 40
0.0
  9
$DIMEXE
 40
0.18
  9
$DIMTP
 40
0.0
  9
$DIMTM
 40
0.0
  9
$DIMTXT
 40
0.6096000075340271
  9
$DIMCEN
 40
0.09
  9
$DIMTSZ
 40
0.0
  9
$DIMTOL
 70
     0
  9
$DIMLIM
 70
     0
  9
$DIMTIH
 70
     1
  9
$DIMTOH
 70
     1
  9
$DIMSE1
 70
     0
  9
$DIMSE2
 70
     0
  9
$DIMTAD
 70
     0
  9
$DIMZIN
 70
     0
  9
$DIMBLK
  1

  9
$DIMASO
 70
     1
  9
$DIMSHO
 70
     1
  9
$DIMPOST
  1

  9
$DIMAPOST
  1

  9
$DIMALT
 70
     0
  9
$DIMALTD
 70
     2
  9
$DIMALTF
 40
25.4
  9
$DIMLFAC
 40
1.0
  9
$DIMTOFL
 70
     0
  9
$DIMTVP
 40
0.0
  9
$DIMTIX
 70
     0
  9
$DIMSOXD
 70
     0
  9
$DIMSAH
 70
     0
  9
$DIMBLK1
  1

  9
$DIMBLK2
  1

  9
$DIMSTYLE
  2
Standard
  9
$DIMCLRD
 70
     0
  9
$DIMCLRE
 70
     0
  9
$DIMCLRT
 70
     0
  9
$DIMTFAC
 40
1.0
  9
$DIMGAP
 40
0.09
  9
$DIMJUST
 70
     0
  9
$DIMSD1
 70
     0
  9
$DIMSD2
 70
     0
  9
$DIMTOLJ
 70
     1
  9
$DIMTZIN
 70
     0
  9
$DIMALTZ
 70
     0
  9
$DIMALTTZ
 70
     0
  9
$DIMUPT
 70
     0
  9
$DIMDEC
 70
     4
  9
$DIMTDEC
 70
     4
  9
$DIMALTU
 70
     2
  9
$DIMALTTD
 70
     2
  9
$DIMTXSTY
  7
Standard
  9
$DIMAUNIT
 70
     0
  9
$DIMADEC
 70
     0
  9
$DIMALTRND
 40
0.0
  9
$DIMAZIN
 70
     0
  9
$DIMDSEP
 70
    46
  9
$DIMATFIT
 70
     3
  9
$DIMFRAC
 70
     0
  9
$DIMLDRBLK
  1

  9
$DIMLUNIT
 70
     2
  9
$DIMLWD
 70
    -2
  9
$DIMLWE
 70
    -2
  9
$DIMTMOVE
 70
     0
  9
$LUNITS
 70
     2
  9
$LUPREC
 70
     4
  9
$SKETCHINC
 40
0.1
  9
$FILLETRAD
 40
0.0
  9
$AUNITS
 70
     0
  9
$AUPREC
 70
     0
  9
$MENU
  1
.
  9
$ELEVATION
 40
0.0
  9
$PELEVATION
 40
0.0
  9
$THICKNESS
 40
0.0
  9
$LIMCHECK
 70
     0
  9
$CHAMFERA
 40
0.0
  9
$CHAMFERB
 40
0.0
  9
$CHAMFERC
 40
0.0
  9
$CHAMFERD
 40
0.0
  9
$SKPOLY
 70
     0
  9
$TDCREATE
 40
2455775.803202940
  9
$TDUCREATE
 40
2455776.094869607
  9
$TDUPDATE
 40
2455775.803202940
  9
$TDUUPDATE
 40
2455776.094869607
  9
$TDINDWG
 40
0.0000428588
  9
$TDUSRTIMER
 40
0.0000428588
  9
$USRTIMER
 70
     1
  9
$ANGBASE
 50
0.0
  9
$ANGDIR
 70
     0
  9
$PDMODE
 70
     0
  9
$PDSIZE
 40
0.0
  9
$PLINEWID
 40
0.0
  9
$SPLFRAME
 70
     0
  9
$SPLINETYPE
 70
     6
  9
$SPLINESEGS
 70
     8
  9
$HANDSEED
  5
D42
  9
$SURFTAB1
 70
     6
  9
$SURFTAB2
 70
     6
  9
$SURFTYPE
 70
     6
  9
$SURFU
 70
     6
  9
$SURFV
 70
     6
  9
$UCSBASE
  2

  9
$UCSNAME
  2

  9
$UCSORG
 10
0.0
 20
0.0
 30
0.0
  9
$UCSXDIR
 10
1.0
 20
0.0
 30
0.0
  9
$UCSYDIR
 10
0.0
 20
1.0
 30
0.0
  9
$UCSORTHOREF
  2

  9
$UCSORTHOVIEW
 70
     0
  9
$UCSORGTOP
 10
0.0
 20
0.0
 30
0.0
  9
$UCSORGBOTTOM
 10
0.0
 20
0.0
 30
0.0
  9
$UCSORGLEFT
 10
0.0
 20
0.0
 30
0.0
  9
$UCSORGRIGHT
 10
0.0
 20
0.0
 30
0.0
  9
$UCSORGFRONT
 10
0.0
 20
0.0
 30
0.0
  9
$UCSORGBACK
 10
0.0
 20
0.0
 30
0.0
  9
$PUCSBASE
  2

  9
$PUCSNAME
  2

  9
$PUCSORG
 10
0.0
 20
0.0
 30
0.0
  9
$PUCSXDIR
 10
1.0
 20
0.0
 30
0.0
  9
$PUCSYDIR
 10
0.0
 20
1.0
 30
0.0
  9
$PUCSORTHOREF
  2

  9
$PUCSORTHOVIEW
 70
     0
  9
$PUCSORGTOP
 10
0.0
 20
0.0
 30
0.0
  9
$PUCSORGBOTTOM
 10
0.0
 20
0.0
 30
0.0
  9
$PUCSORGLEFT
 10
0.0
 20
0.0
 30
0.0
  9
$PUCSORGRIGHT
 10
0.0
 20
0.0
 30
0.0
  9
$PUCSORGFRONT
 10
0.0
 20
0.0
 30
0.0
  9
$PUCSORGBACK
 10
0.0
 20
0.0
 30
0.0
  9
$USERI1
 70
     0
  9
$USERI2
 70
     0
  9
$USERI3
 70
     0
  9
$USERI4
 70
     0
  9
$USERI5
 70
     0
  9
$USERR1
 40
0.0
  9
$USERR2
 40
0.0
  9
$USERR3
 40
0.0
  9
$USERR4
 40
0.0
  9
$USERR5
 40
0.0
  9
$WORLDVIEW
 70
     1
  9
$SHADEDGE
 70
     3
  9
$SHADEDIF
 70
    70
  9
$TILEMODE
 70
     1
  9
$MAXACTVP
 70
    64
  9
$PINSBASE
 10
0.0
 20
0.0
 30
0.0
  9
$PLIMCHECK
 70
     0
  9
$PEXTMIN
 10
0.0
 20
0.0
 30
0.0
  9
$PEXTMAX
 10
22.0
 20
17.0
 30
0.0
  9
$PLIMMIN
 10
0.0
 20
0.0
  9
$PLIMMAX
 10
22.0
 20
17.0
  9
$UNITMODE
 70
     0
  9
$VISRETAIN
 70
     1
  9
$PLINEGEN
 70
     0
  9
$PSLTSCALE
 70
     1
  9
$TREEDEPTH
 70
  3020
  9
$CMLSTYLE
  2
Standard
  9
$CMLJUST
 70
     0
  9
$CMLSCALE
 40
1.0
  9
$PROXYGRAPHICS
 70
     1
  9
$MEASUREMENT
 70
     0
  9
$CELWEIGHT
370
    -1
  9
$ENDCAPS
280
     0
  9
$JOINSTYLE
280
     0
  9
$LWDISPLAY
290
     0
  9
$INSUNITS
 70
     0
  9
$HYPERLINKBASE
  1

  9
$STYLESHEET
  1

  9
$XEDIT
290
     1
  9
$CEPSNTYPE
380
     0
  9
$PSTYLEMODE
290
     1
  9
$FINGERPRINTGUID
  2
{25FDC0CB-A712-4D1E-9DBC-48BBAE14F303}
  9
$VERSIONGUID
  2
{098E9110-4D14-464E-9574-AE12A0F00715}
  9
$EXTNAMES
290
     1
  9
$PSVPSCALE
 40
0.0
  9
$OLESTARTUP
290
     0
  9
$SORTENTS
280
   127
  9
$INDEXCTL
280
     0
  9
$HIDETEXT
280
     1
  9
$XCLIPFRAME
290
     0
  9
$HALOGAP
280
     0
  9
$OBSCOLOR
 70
   257
  9
$OBSLTYPE
280
     0
  9
$INTERSECTIONDISPLAY
280
     0
  9
$INTERSECTIONCOLOR
 70
   257
  9
$DIMASSOC
280
     1
  9
$PROJECTNAME
  1

  0
ENDSEC
  0
SECTION
  2
CLASSES
  0
CLASS
  1
ACDBDICTIONARYWDFLT
  2
AcDbDictionaryWithDefault
  3
ObjectDBX Classes
 90
        0
 91
        1
280
     0
281
     0
  0
CLASS
  1
TABLESTYLE
  2
AcDbTableStyle
  3
ObjectDBX Classes
 90
     2047
 91
        1
280
     0
281
     0
  0
CLASS
  1
DICTIONARYVAR
  2
AcDbDictionaryVar
  3
ObjectDBX Classes
 90
        0
 91
        1
280
     0
281
     0
  0
ENDSEC
  0
SECTION
  2
TABLES
  0
TABLE
  2
VPORT
  5
8
330
0
100
AcDbSymbolTable
 70
     1
  0
VPORT
  5
13
330
8
100
AcDbSymbolTableRecord
100
AcDbViewportTableRecord
  2
*Active
 70
     0
 10
0.0
 20
0.0
 11
1.0
 21
1.0
 12
11.0
 22
8.5
 13
0.0
 23
0.0
 14
1.0
 24
1.0
 15
0.0
 25
0.0
 16
0.0
 26
0.0
 36
1.0
 17
0.0
 27
0.0
 37
0.0
 40
17.0
 41
1.294117647058823
 42
50.0
 43
0.0
 44
0.0
 50
0.0
 51
0.0
 71
     0
 72
   100
 73
     1
 74
     1
 75
     0
 76
     0
 77
     0
 78
     0
281
     0
 65
     1
110
0.0
120
0.0
130
0.0
111
1.0
121
0.0
131
0.0
112
0.0
122
1.0
132
0.0
 79
     0
146
0.0
  0
ENDTAB
  0
TABLE
  2
LTYPE
  5
5
330
0
100
AcDbSymbolTable
 70
    59
  0
LTYPE
  5
14
330
5
100
AcDbSymbolTableRecord
100
AcDbLinetypeTableRecord
  2
ByBlock
 70
     0
  3

 72
    65
 73
     0
 40
0.0
  0
LTYPE
  5
15
330
5
100
AcDbSymbolTableRecord
100
AcDbLinetypeTableRecord
  2
ByLayer
 70
     0
  3

 72
    65
 73
     0
 40
0.0
  0
LTYPE
  5
16
330
5
100
AcDbSymbolTableRecord
100
AcDbLinetypeTableRecord
  2
Continuous
 70
     0
  3
Solid line
 72
    65
 73
     0
 40
0.0
  0
LTYPE
  5
2C
330
5
100
AcDbSymbolTableRecord
100
AcDbLinetypeTableRecord
  2
BY_STANDARD
 70
     0
  3
By Standard ____________    ____    ____   _
 72
    65
 73
     6
 40
1.240299999999999
 49
0.6614
 74
     0
 49
-0.0827
 74
     0
 49
0.1654
 74
     0
 49
-0.0827
 74
     0
 49
0.1654
 74
     0
 49
-0.0827
 74
     0
  0
LTYPE
  5
2D
330
5
100
AcDbSymbolTableRecord
100
AcDbLinetypeTableRecord
  2
CHAIN
 70
     0
  3
Chain ____ _ ____ _ ____ _ ____ _ ____ _ ____
 72
    65
 73
     4
 40
0.7087
 49
0.4724000000000001
 74
     0
 49
-0.0591
 74
     0
 49
0.1181
 74
     0
 49
-0.0591
 74
     0
  0
LTYPE
  5
2E
330
5
100
AcDbSymbolTableRecord
100
AcDbLinetypeTableRecord
  2
DASH_DOT
 70
     0
  3
Dash dot __ . __ . __ . __ . __ . __ . __ . __
 72
    65
 73
     4
 40
0.37
 49
0.24
 74
     0
 49
-0.06
 74
     0
 49
0.01
 74
     0
 49
-0.06
 74
     0
  0
LTYPE
  5
2F
330
5
100
AcDbSymbolTableRecord
100
AcDbLinetypeTableRecord
  2
DOUBLE_DASH_DOT
 70
     0
  3
Double-Dash Dot __ __ . __ __ . __ __ . __ _
 72
    65
 73
     6
 40
0.4398
 49
0.24
 74
     0
 49
-0.06
 74
     0
 49
0.0098
 74
     0
 49
-0.06
 74
     0
 49
0.01
 74
     0
 49
-0.06
 74
     0
  0
LTYPE
  5
30
330
5
100
AcDbSymbolTableRecord
100
AcDbLinetypeTableRecord
  2
DASH_TRIPLE_DOT
 70
     0
  3
Dash Triple-Dot _ . . . _ . . . _ . . . _
 72
    65
 73
     8
 40
0.51
 49
0.24
 74
     0
 49
-0.06
 74
     0
 49
0.01
 74
     0
 49
-0.06
 74
     0
 49
0.01
 74
     0
 49
-0.06
 74
     0
 49
0.01
 74
     0
 49
-0.06
 74
     0
  0
LTYPE
  5
31
330
5
100
AcDbSymbolTableRecord
100
AcDbLinetypeTableRecord
  2
DASHED
 70
     0
  3
Dashed __ __ __ __ __ __ __ __ __ __ __ __ __ _
 72
    65
 73
     2
 40
0.2067
 49
0.1654
 74
     0
 49
-0.0413
 74
     0
  0
LTYPE
  5
32
330
5
100
AcDbSymbolTableRecord
100
AcDbLinetypeTableRecord
  2
DASH_DOUBLE_DOT
 70
     0
  3
Dash Double-Dot __ . . __ . . __ . . __ . .
 72
    65
 73
     6
 40
0.4398
 49
0.24
 74
     0
 49
-0.06
 74
     0
 49
0.0098
 74
     0
 49
-0.06
 74
     0
 49
0.01
 74
     0
 49
-0.06
 74
     0
  0
LTYPE
  5
33
330
5
100
AcDbSymbolTableRecord
100
AcDbLinetypeTableRecord
  2
DASHED_SPACE
 70
     0
  3
Dashed Space __ __ __ __ __ __ __ __ __ __ __ _
 72
    65
 73
     2
 40
0.2067
 49
0.1654
 74
     0
 49
-0.0413
 74
     0
  0
LTYPE
  5
34
330
5
100
AcDbSymbolTableRecord
100
AcDbLinetypeTableRecord
  2
DOTTED
 70
     0
  3
Dotted . . . . . . . . . . . . . . . . . . . . 
 72
    65
 73
     2
 40
0.0482
 49
0.0069
 74
     0
 49
-0.0413
 74
     0
  0
LTYPE
  5
35
330
5
100
AcDbSymbolTableRecord
100
AcDbLinetypeTableRecord
  2
DOUBLE_DASH_CHAIN
 70
     0
  3
Double-Dash Chain ______  __  __  ______  __  _
 72
    65
 73
     6
 40
1.240299999999999
 49
0.6614
 74
     0
 49
-0.0827
 74
     0
 49
0.1654
 74
     0
 49
-0.0827
 74
     0
 49
0.1654
 74
     0
 49
-0.0827
 74
     0
  0
LTYPE
  5
37
330
5
100
AcDbSymbolTableRecord
100
AcDbLinetypeTableRecord
  2
DOUBLE_DASH_DOUBLE_DOT
 70
     0
  3
Double-Dash Double-dot _ _ . . _ _ . . _
 72
    65
 73
     8
 40
0.7400000000000001
 49
0.24
 74
     0
 49
-0.06
 74
     0
 49
0.24
 74
     0
 49
-0.06
 74
     0
 49
0.01
 74
     0
 49
-0.06
 74
     0
 49
0.01
 74
     0
 49
-0.06
 74
     0
  0
LTYPE
  5
38
330
5
100
AcDbSymbolTableRecord
100
AcDbLinetypeTableRecord
  2
DOUBLE_DASH_TRIPLE_DOT
 70
     0
  3
Double Dash Triple Dot __ __ . . . __ __ . .
 72
    65
 73
    10
 40
0.8100000000000001
 49
0.24
 74
     0
 49
-0.06
 74
     0
 49
0.24
 74
     0
 49
-0.06
 74
     0
 49
0.01
 74
     0
 49
-0.06
 74
     0
 49
0.01
 74
     0
 49
-0.06
 74
     0
 49
0.01
 74
     0
 49
-0.06
 74
     0
  0
LTYPE
  5
39
330
5
100
AcDbSymbolTableRecord
100
AcDbLinetypeTableRecord
  2
LONG_DASH_DOTTED
 70
     0
  3
Long Dash Dotted ____ . ____ . ____ . ____ . _
 72
    65
 73
     4
 40
0.3543
 49
0.2362
 74
     0
 49
-0.0295
 74
     0
 49
0.0591
 74
     0
 49
-0.0295
 74
     0
  0
LTYPE
  5
3A
330
5
100
AcDbSymbolTableRecord
100
AcDbLinetypeTableRecord
  2
LONG_DASH_DOUBLE_DOT
 70
     0
  3
Long Dash Double Dot ________  .  .  ________  
 72
    65
 73
     6
 40
0.6799999999999999
 49
0.48
 74
     0
 49
-0.06
 74
     0
 49
0.01
 74
     0
 49
-0.06
 74
     0
 49
0.01
 74
     0
 49
-0.06
 74
     0
  0
LTYPE
  5
3B
330
5
100
AcDbSymbolTableRecord
100
AcDbLinetypeTableRecord
  2
LONG_DASH_TRIPLE_DOT
 70
     0
  3
Long Dash Triple Dot ____ ... ____ ... ____
 72
    65
 73
     8
 40
0.3689
 49
0.2362
 74
     0
 49
-0.0295
 74
     0
 49
0.0049
 74
     0
 49
-0.0295
 74
     0
 49
0.0049
 74
     0
 49
-0.0295
 74
     0
 49
0.0049
 74
     0
 49
-0.0295
 74
     0
  0
LTYPE
  5
3C
330
5
100
AcDbSymbolTableRecord
100
AcDbLinetypeTableRecord
  2
BORDER
 70
     0
  3
Border __ __ . __ __ . __ __ . __ __ . __ __ .
 72
    65
 73
     6
 40
1.75
 49
0.5
 74
     0
 49
-0.25
 74
     0
 49
0.5
 74
     0
 49
-0.25
 74
     0
 49
0.0
 74
     0
 49
-0.25
 74
     0
  0
LTYPE
  5
3D
330
5
100
AcDbSymbolTableRecord
100
AcDbLinetypeTableRecord
  2
BORDER2
 70
     0
  3
Border (.5x) __.__.__.__.__.__.__.__.__.__.__.
 72
    65
 73
     6
 40
0.875
 49
0.25
 74
     0
 49
-0.125
 74
     0
 49
0.25
 74
     0
 49
-0.125
 74
     0
 49
0.0
 74
     0
 49
-0.125
 74
     0
  0
LTYPE
  5
3E
330
5
100
AcDbSymbolTableRecord
100
AcDbLinetypeTableRecord
  2
BORDERX2
 70
     0
  3
Border (2x) ____  ____  .  ____  ____  .  ___
 72
    65
 73
     6
 40
3.5
 49
1.0
 74
     0
 49
-0.5
 74
     0
 49
1.0
 74
     0
 49
-0.5
 74
     0
 49
0.0
 74
     0
 49
-0.5
 74
     0
  0
LTYPE
  5
3F
330
5
100
AcDbSymbolTableRecord
100
AcDbLinetypeTableRecord
  2
CENTER
 70
     0
  3
Center ____ _ ____ _ ____ _ ____ _ ____ _ ____
 72
    65
 73
     4
 40
2.0
 49
1.25
 74
     0
 49
-0.25
 74
     0
 49
0.25
 74
     0
 49
-0.25
 74
     0
  0
LTYPE
  5
40
330
5
100
AcDbSymbolTableRecord
100
AcDbLinetypeTableRecord
  2
CENTER2
 70
     0
  3
Center (.5x) ___ _ ___ _ ___ _ ___ _ ___ _ ___
 72
    65
 73
     4
 40
1.125
 49
0.75
 74
     0
 49
-0.125
 74
     0
 49
0.125
 74
     0
 49
-0.125
 74
     0
  0
LTYPE
  5
41
330
5
100
AcDbSymbolTableRecord
100
AcDbLinetypeTableRecord
  2
CENTERX2
 70
     0
  3
Center (2x) ________  __  ________  __  _____
 72
    65
 73
     4
 40
4.0
 49
2.5
 74
     0
 49
-0.5
 74
     0
 49
0.5
 74
     0
 49
-0.5
 74
     0
  0
LTYPE
  5
42
330
5
100
AcDbSymbolTableRecord
100
AcDbLinetypeTableRecord
  2
DASHDOT2
 70
     0
  3
Dash dot (.5x) _._._._._._._._._._._._._._._.
 72
    65
 73
     4
 40
0.5
 49
0.25
 74
     0
 49
-0.125
 74
     0
 49
0.0
 74
     0
 49
-0.125
 74
     0
  0
LTYPE
  5
43
330
5
100
AcDbSymbolTableRecord
100
AcDbLinetypeTableRecord
  2
DASHDOTX2
 70
     0
  3
Dash dot (2x) ____  .  ____  .  ____  .  ___
 72
    65
 73
     4
 40
2.0
 49
1.0
 74
     0
 49
-0.5
 74
     0
 49
0.0
 74
     0
 49
-0.5
 74
     0
  0
LTYPE
  5
45
330
5
100
AcDbSymbolTableRecord
100
AcDbLinetypeTableRecord
  2
DASHED2
 70
     0
  3
Dashed (.5x) _ _ _ _ _ _ _ _ _ _ _ _ _ _ _ _ _
 72
    65
 73
     2
 40
0.375
 49
0.25
 74
     0
 49
-0.125
 74
     0
  0
LTYPE
  5
46
330
5
100
AcDbSymbolTableRecord
100
AcDbLinetypeTableRecord
  2
DASHEDX2
 70
     0
  3
Dashed (2x) ____  ____  ____  ____  ____  ___
 72
    65
 73
     2
 40
1.5
 49
1.0
 74
     0
 49
-0.5
 74
     0
  0
LTYPE
  5
47
330
5
100
AcDbSymbolTableRecord
100
AcDbLinetypeTableRecord
  2
DIVIDE
 70
     0
  3
Divide ____ . . ____ . . ____ . . ____ . . ____
 72
    65
 73
     6
 40
1.25
 49
0.5
 74
     0
 49
-0.25
 74
     0
 49
0.0
 74
     0
 49
-0.25
 74
     0
 49
0.0
 74
     0
 49
-0.25
 74
     0
  0
LTYPE
  5
48
330
5
100
AcDbSymbolTableRecord
100
AcDbLinetypeTableRecord
  2
DIVIDE2
 70
     0
  3
Divide (.5x) __..__..__..__..__..__..__..__.._
 72
    65
 73
     6
 40
0.625
 49
0.25
 74
     0
 49
-0.125
 74
     0
 49
0.0
 74
     0
 49
-0.125
 74
     0
 49
0.0
 74
     0
 49
-0.125
 74
     0
  0
LTYPE
  5
49
330
5
100
AcDbSymbolTableRecord
100
AcDbLinetypeTableRecord
  2
DIVIDEX2
 70
     0
  3
Divide (2x) ________  .  .  ________  .  .  _
 72
    65
 73
     6
 40
2.5
 49
1.0
 74
     0
 49
-0.5
 74
     0
 49
0.0
 74
     0
 49
-0.5
 74
     0
 49
0.0
 74
     0
 49
-0.5
 74
     0
  0
LTYPE
  5
4A
330
5
100
AcDbSymbolTableRecord
100
AcDbLinetypeTableRecord
  2
DOT
 70
     0
  3
Dot . . . . . . . . . . . . . . . . . . . . . .
 72
    65
 73
     2
 40
0.25
 49
0.0
 74
     0
 49
-0.25
 74
     0
  0
LTYPE
  5
4B
330
5
100
AcDbSymbolTableRecord
100
AcDbLinetypeTableRecord
  2
DOT2
 70
     0
  3
Dot (.5x) .....................................
 72
    65
 73
     2
 40
0.125
 49
0.0
 74
     0
 49
-0.125
 74
     0
  0
LTYPE
  5
4C
330
5
100
AcDbSymbolTableRecord
100
AcDbLinetypeTableRecord
  2
DOTX2
 70
     0
  3
Dot (2x) .  .  .  .  .  .  .  .  .  .  .  .  . 
 72
    65
 73
     2
 40
0.5
 49
0.0
 74
     0
 49
-0.5
 74
     0
  0
LTYPE
  5
4D
330
5
100
AcDbSymbolTableRecord
100
AcDbLinetypeTableRecord
  2
HIDDEN
 70
     0
  3
Hidden __ __ __ __ __ __ __ __ __ __ __ __ __ _
 72
    65
 73
     2
 40
0.375
 49
0.25
 74
     0
 49
-0.125
 74
     0
  0
LTYPE
  5
4E
330
5
100
AcDbSymbolTableRecord
100
AcDbLinetypeTableRecord
  2
HIDDEN2
 70
     0
  3
Hidden (.5x) _ _ _ _ _ _ _ _ _ _ _ _ _ _ _ _ _
 72
    65
 73
     2
 40
0.1875
 49
0.125
 74
     0
 49
-0.0625
 74
     0
  0
LTYPE
  5
4F
330
5
100
AcDbSymbolTableRecord
100
AcDbLinetypeTableRecord
  2
HIDDENX2
 70
     0
  3
Hidden (2x) ____ ____ ____ ____ ____ ____ ____
 72
    65
 73
     2
 40
0.75
 49
0.5
 74
     0
 49
-0.25
 74
     0
  0
LTYPE
  5
50
330
5
100
AcDbSymbolTableRecord
100
AcDbLinetypeTableRecord
  2
PHANTOM
 70
     0
  3
Phantom ______  __  __  ______  __  __  ______
 72
    65
 73
     6
 40
2.5
 49
1.25
 74
     0
 49
-0.25
 74
     0
 49
0.25
 74
     0
 49
-0.25
 74
     0
 49
0.25
 74
     0
 49
-0.25
 74
     0
  0
LTYPE
  5
51
330
5
100
AcDbSymbolTableRecord
100
AcDbLinetypeTableRecord
  2
PHANTOM2
 70
     0
  3
Phantom (.5x) ___ _ _ ___ _ _ ___ _ _ ___ _ _
 72
    65
 73
     6
 40
1.25
 49
0.625
 74
     0
 49
-0.125
 74
     0
 49
0.125
 74
     0
 49
-0.125
 74
     0
 49
0.125
 74
     0
 49
-0.125
 74
     0
  0
LTYPE
  5
52
330
5
100
AcDbSymbolTableRecord
100
AcDbLinetypeTableRecord
  2
PHANTOMX2
 70
     0
  3
Phantom (2x) ____________    ____    ____   _
 72
    65
 73
     6
 40
5.0
 49
2.5
 74
     0
 49
-0.5
 74
     0
 49
0.5
 74
     0
 49
-0.5
 74
     0
 49
0.5
 74
     0
 49
-0.5
 74
     0
  0
LTYPE
  5
53
330
5
100
AcDbSymbolTableRecord
100
AcDbLinetypeTableRecord
  2
ACAD_ISO02W100
 70
     0
  3
ISO dash __ __ __ __ __ __ __ __ __ __ __ __ __
 72
    65
 73
     2
 40
0.59
 49
0.47
 74
     0
 49
-0.12
 74
     0
  0
LTYPE
  5
54
330
5
100
AcDbSymbolTableRecord
100
AcDbLinetypeTableRecord
  2
ACAD_ISO03W100
 70
     0
  3
ISO dash space __    __    __    __    __    __
 72
    65
 73
     2
 40
1.179999999999999
 49
0.47
 74
     0
 49
-0.71
 74
     0
  0
LTYPE
  5
55
330
5
100
AcDbSymbolTableRecord
100
AcDbLinetypeTableRecord
  2
ACAD_ISO04W100
 70
     0
  3
ISO long-dash dot ____ . ____ . ____ . ____ . _
 72
    65
 73
     4
 40
1.179999999999999
 49
0.9399999999999998
 74
     0
 49
-0.12
 74
     0
 49
0.0
 74
     0
 49
-0.12
 74
     0
  0
LTYPE
  5
56
330
5
100
AcDbSymbolTableRecord
100
AcDbLinetypeTableRecord
  2
ACAD_ISO05W100
 70
     0
  3
ISO long-dash double-dot ____ .. ____ .. ____ .
 72
    65
 73
     6
 40
1.299999999999999
 49
0.9399999999999998
 74
     0
 49
-0.12
 74
     0
 49
0.0
 74
     0
 49
-0.12
 74
     0
 49
0.0
 74
     0
 49
-0.12
 74
     0
  0
LTYPE
  5
57
330
5
100
AcDbSymbolTableRecord
100
AcDbLinetypeTableRecord
  2
ACAD_ISO06W100
 70
     0
  3
ISO long-dash triple-dot ____ ... ____ ... ____
 72
    65
 73
     8
 40
1.419999999999999
 49
0.9399999999999998
 74
     0
 49
-0.12
 74
     0
 49
0.0
 74
     0
 49
-0.12
 74
     0
 49
0.0
 74
     0
 49
-0.12
 74
     0
 49
0.0
 74
     0
 49
-0.12
 74
     0
  0
LTYPE
  5
58
330
5
100
AcDbSymbolTableRecord
100
AcDbLinetypeTableRecord
  2
ACAD_ISO07W100
 70
     0
  3
ISO dot . . . . . . . . . . . . . . . . . . . .
 72
    65
 73
     2
 40
0.12
 49
0.0
 74
     0
 49
-0.12
 74
     0
  0
LTYPE
  5
59
330
5
100
AcDbSymbolTableRecord
100
AcDbLinetypeTableRecord
  2
ACAD_ISO08W100
 70
     0
  3
ISO long-dash short-dash ____ __ ____ __ ____ _
 72
    65
 73
     4
 40
0.95
 49
0.47
 74
     0
 49
-0.12
 74
     0
 49
0.24
 74
     0
 49
-0.12
 74
     0
  0
LTYPE
  5
5A
330
5
100
AcDbSymbolTableRecord
100
AcDbLinetypeTableRecord
  2
ACAD_ISO09W100
 70
     0
  3
ISO long-dash double-short-dash ____ __ __ ____
 72
    65
 73
     6
 40
1.31
 49
0.47
 74
     0
 49
-0.12
 74
     0
 49
0.24
 74
     0
 49
-0.12
 74
     0
 49
0.24
 74
     0
 49
-0.12
 74
     0
  0
LTYPE
  5
5B
330
5
100
AcDbSymbolTableRecord
100
AcDbLinetypeTableRecord
  2
ACAD_ISO10W100
 70
     0
  3
ISO dash dot __ . __ . __ . __ . __ . __ . __ .
 72
    65
 73
     4
 40
0.71
 49
0.47
 74
     0
 49
-0.12
 74
     0
 49
0.0
 74
     0
 49
-0.12
 74
     0
  0
LTYPE
  5
5C
330
5
100
AcDbSymbolTableRecord
100
AcDbLinetypeTableRecord
  2
ACAD_ISO11W100
 70
     0
  3
ISO double-dash dot __ __ . __ __ . __ __ . __ 
 72
    65
 73
     6
 40
1.299999999999999
 49
0.47
 74
     0
 49
-0.12
 74
     0
 49
0.47
 74
     0
 49
-0.12
 74
     0
 49
0.0
 74
     0
 49
-0.12
 74
     0
  0
LTYPE
  5
5D
330
5
100
AcDbSymbolTableRecord
100
AcDbLinetypeTableRecord
  2
ACAD_ISO12W100
 70
     0
  3
ISO dash double-dot __ . . __ . . __ . . __ . .
 72
    65
 73
     6
 40
0.8299999999999998
 49
0.47
 74
     0
 49
-0.12
 74
     0
 49
0.0
 74
     0
 49
-0.12
 74
     0
 49
0.0
 74
     0
 49
-0.12
 74
     0
  0
LTYPE
  5
5E
330
5
100
AcDbSymbolTableRecord
100
AcDbLinetypeTableRecord
  2
ACAD_ISO13W100
 70
     0
  3
ISO double-dash double-dot __ __ . . __ __ . . 
 72
    65
 73
     8
 40
1.419999999999999
 49
0.47
 74
     0
 49
-0.12
 74
     0
 49
0.47
 74
     0
 49
-0.12
 74
     0
 49
0.0
 74
     0
 49
-0.12
 74
     0
 49
0.0
 74
     0
 49
-0.12
 74
     0
  0
LTYPE
  5
5F
330
5
100
AcDbSymbolTableRecord
100
AcDbLinetypeTableRecord
  2
ACAD_ISO14W100
 70
     0
  3
ISO dash triple-dot __ . . . __ . . . __ . . . 
 72
    65
 73
     8
 40
0.95
 49
0.47
 74
     0
 49
-0.12
 74
     0
 49
0.0
 74
     0
 49
-0.12
 74
     0
 49
0.0
 74
     0
 49
-0.12
 74
     0
 49
0.0
 74
     0
 49
-0.12
 74
     0
  0
LTYPE
  5
60
330
5
100
AcDbSymbolTableRecord
100
AcDbLinetypeTableRecord
  2
ACAD_ISO15W100
 70
     0
  3
ISO double-dash triple-dot __ __ . . . __ __ . 
 72
    65
 73
    10
 40
1.539999999999999
 49
0.47
 74
     0
 49
-0.12
 74
     0
 49
0.47
 74
     0
 49
-0.12
 74
     0
 49
0.0
 74
     0
 49
-0.12
 74
     0
 49
0.0
 74
     0
 49
-0.12
 74
     0
 49
0.0
 74
     0
 49
-0.12
 74
     0
  0
LTYPE
  5
63
330
5
100
AcDbSymbolTableRecord
100
AcDbLinetypeTableRecord
  2
FENCELINE1
 70
     0
  3
Fenceline circle ----0-----0----0-----0----0---
 72
    65
 73
     4
 40
1.45
 49
0.25
 74
     0
 49
-0.1
 74
     4
 75
   133
340
62
 46
0.1
 50
0.0
 44
-0.1
 45
0.0
 49
-0.1
 74
     0
 49
1.0
 74
     0
  0
LTYPE
  5
64
330
5
100
AcDbSymbolTableRecord
100
AcDbLinetypeTableRecord
  2
FENCELINE2
 70
     0
  3
Fenceline square ----[]-----[]----[]-----[]----
 72
    65
 73
     4
 40
1.45
 49
0.25
 74
     0
 49
-0.1
 74
     4
 75
   132
340
62
 46
0.1
 50
0.0
 44
-0.1
 45
0.0
 49
-0.1
 74
     0
 49
1.0
 74
     0
  0
LTYPE
  5
65
330
5
100
AcDbSymbolTableRecord
100
AcDbLinetypeTableRecord
  2
TRACKS
 70
     0
  3
Tracks -|-|-|-|-|-|-|-|-|-|-|-|-|-|-|-|-|-|-|-|
 72
    65
 73
     2
 40
0.3
 49
0.15
 74
     4
 75
   130
340
62
 46
0.25
 50
0.0
 44
0.0
 45
0.0
 49
0.15
 74
     0
  0
LTYPE
  5
66
330
5
100
AcDbSymbolTableRecord
100
AcDbLinetypeTableRecord
  2
BATTING
 70
     0
  3
Batting SSSSSSSSSSSSSSSSSSSSSSSSSSSSSSSSSSSSSSS
 72
    65
 73
     4
 40
0.4001000000000001
 49
0.0001
 74
     0
 49
-0.1
 74
     4
 75
   134
340
62
 46
0.1
 50
0.0
 44
-0.1
 45
0.0
 49
-0.2
 74
     4
 75
   134
340
62
 46
0.1
 50
180.0
 44
0.1
 45
0.0
 49
-0.1
 74
     0
  0
LTYPE
  5
67
330
5
100
AcDbSymbolTableRecord
100
AcDbLinetypeTableRecord
  2
HOT_WATER_SUPPLY
 70
     0
  3
Hot water supply ---- HW ---- HW ---- HW ----
 72
    65
 73
     3
 40
0.9
 49
0.5
 74
     0
 49
-0.2
 74
     2
 75
     0
340
11
 46
0.1
 50
0.0
 44
-0.1
 45
-0.05
  9
HW
 49
-0.2
 74
     0
  0
LTYPE
  5
68
330
5
100
AcDbSymbolTableRecord
100
AcDbLinetypeTableRecord
  2
GAS_LINE
 70
     0
  3
Gas line ----GAS----GAS----GAS----GAS----GAS---
 72
    65
 73
     3
 40
0.95
 49
0.5
 74
     0
 49
-0.2
 74
     2
 75
     0
340
11
 46
0.1
 50
0.0
 44
-0.1
 45
-0.05
  9
GAS
 49
-0.25
 74
     0
  0
LTYPE
  5
69
330
5
100
AcDbSymbolTableRecord
100
AcDbLinetypeTableRecord
  2
ZIGZAG
 70
     0
  3
Zig zag /\/\/\/\/\/\/\/\/\/\/\/\/\/\/\/\/\/\/\/
 72
    65
 73
     4
 40
0.8001000000000001
 49
0.0001
 74
     0
 49
-0.2
 74
     4
 75
   131
340
62
 46
0.2
 50
0.0
 44
-0.2
 45
0.0
 49
-0.4
 74
     4
 75
   131
340
62
 46
0.2
 50
180.0
 44
0.2
 45
0.0
 49
-0.2
 74
     0
  0
ENDTAB
  0
TABLE
  2
LAYER
  5
2
330
0
100
AcDbSymbolTable
 70
    24
  0
LAYER
  5
10
330
2
100
AcDbSymbolTableRecord
100
AcDbLayerTableRecord
  2
0
 70
     0
 62
     7
  6
Continuous
370
    -3
390
F
  0
LAYER
  5
6C
330
2
100
AcDbSymbolTableRecord
100
AcDbLayerTableRecord
  2
Border (ANSI)
 70
     0
 62
     7
  6
Continuous
370
    70
390
F
  0
LAYER
  5
71
330
2
100
AcDbSymbolTableRecord
100
AcDbLayerTableRecord
  2
Dimension (ANSI)
 70
     0
 62
     7
  6
Continuous
370
    25
390
F
  0
LAYER
  5
74
330
2
100
AcDbSymbolTableRecord
100
AcDbLayerTableRecord
  2
Hidden Narrow (ANSI)
 70
     0
 62
     7
  6
DASHED
370
    25
390
F
  0
LAYER
  5
78
330
2
100
AcDbSymbolTableRecord
100
AcDbLayerTableRecord
  2
Symbol (ANSI)
 70
     0
 62
     7
  6
Continuous
370
    25
390
F
  0
LAYER
  5
79
330
2
100
AcDbSymbolTableRecord
100
AcDbLayerTableRecord
  2
Title (ANSI)
 70
     0
 62
     7
  6
Continuous
370
    50
390
F
  0
LAYER
  5
7B
330
2
100
AcDbSymbolTableRecord
100
AcDbLayerTableRecord
  2
Visible (ANSI)
 70
     0
 62
     7
  6
Continuous
370
    50
390
F
  0
LAYER
  5
7C
330
2
100
AcDbSymbolTableRecord
100
AcDbLayerTableRecord
  2
Visible Narrow (ANSI)
 70
     0
 62
     7
  6
Continuous
370
    35
390
F
  0
LAYER
  5
474
330
2
100
AcDbSymbolTableRecord
100
AcDbLayerTableRecord
  2
Defpoints
 70
     0
 62
     7
  6
Continuous
290
     0
370
    -3
390
F
  0
ENDTAB
  0
TABLE
  2
STYLE
  5
3
330
0
100
AcDbSymbolTable
 70
    11
  0
STYLE
  5
11
330
3
100
AcDbSymbolTableRecord
100
AcDbTextStyleTableRecord
  2
Standard
 70
     0
 40
0.0
 41
1.0
 50
0.0
 71
     0
 42
0.2
  3
TAHOMA.TTF
  4

1001
ACAD
1000
Tahoma
1071
      256
  0
STYLE
  5
62
330
3
100
AcDbSymbolTableRecord
100
AcDbTextStyleTableRecord
  2

 70
     1
 40
0.0
 41
1.0
 50
0.0
 71
     0
 42
0.2
  3
ltypeshp.shx
  4

  0
STYLE
  5
80
330
3
100
AcDbSymbolTableRecord
100
AcDbTextStyleTableRecord
  2
Label Text (ANSI)
 70
     0
 40
0.0
 41
1.0
 50
0.0
 71
     0
 42
0.2
  3
TAHOMA.TTF
  4

1001
ACAD
1000
Tahoma
1071
      256
  0
STYLE
  5
81
330
3
100
AcDbSymbolTableRecord
100
AcDbTextStyleTableRecord
  2
Label Text (DIN)
 70
     0
 40
0.0
 41
1.0
 50
0.0
 71
     0
 42
0.2
  3
isocpeur.ttf
  4

1001
ACAD
1000
ISOCPEUR
1071
      256
  0
STYLE
  5
82
330
3
100
AcDbSymbolTableRecord
100
AcDbTextStyleTableRecord
  2
Label Text (ISO)
 70
     0
 40
0.0
 41
1.0
 50
0.0
 71
     0
 42
0.2
  3
TAHOMA.TTF
  4

1001
ACAD
1000
Tahoma
1071
      256
  0
STYLE
  5
83
330
3
100
AcDbSymbolTableRecord
100
AcDbTextStyleTableRecord
  2
Label Text (JIS)
 70
     0
 40
0.0
 41
1.0
 50
0.0
 71
     0
 42
0.2
  3
TAHOMA.TTF
  4

1001
ACAD
1000
Tahoma
1071
      256
  0
STYLE
  5
84
330
3
100
AcDbSymbolTableRecord
100
AcDbTextStyleTableRecord
  2
Note Text (ANSI)
 70
     0
 40
0.0
 41
1.0
 50
0.0
 71
     0
 42
0.2
  3
TAHOMA.TTF
  4

1001
ACAD
1000
Tahoma
1071
      256
  0
STYLE
  5
85
330
3
100
AcDbSymbolTableRecord
100
AcDbTextStyleTableRecord
  2
Note Text (DIN)
 70
     0
 40
0.0
 41
1.0
 50
0.0
 71
     0
 42
0.2
  3
isocpeur.ttf
  4

1001
ACAD
1000
ISOCPEUR
1071
      256
  0
STYLE
  5
86
330
3
100
AcDbSymbolTableRecord
100
AcDbTextStyleTableRecord
  2
Note Text (ISO)
 70
     0
 40
0.0
 41
1.0
 50
0.0
 71
     0
 42
0.2
  3
TAHOMA.TTF
  4

1001
ACAD
1000
Tahoma
1071
      256
  0
STYLE
  5
87
330
3
100
AcDbSymbolTableRecord
100
AcDbTextStyleTableRecord
  2
Note Text (JIS)
 70
     0
 40
0.0
 41
1.0
 50
0.0
 71
     0
 42
0.2
  3
TAHOMA.TTF
  4

1001
ACAD
1000
Tahoma
1071
      256
  0
STYLE
  5
DD
330
3
100
AcDbSymbolTableRecord
100
AcDbTextStyleTableRecord
  2
Text Style41
 70
     0
 40
0.0
 41
1.0
 50
0.0
 71
     0
 42
0.2
  3
TAHOMA.TTF
  4

1001
ACAD
1000
Tahoma
1071
      256
  0
ENDTAB
  0
TABLE
  2
VIEW
  5
6
330
0
100
AcDbSymbolTable
 70
     0
  0
ENDTAB
  0
TABLE
  2
UCS
  5
7
330
0
100
AcDbSymbolTable
 70
     0
  0
ENDTAB
  0
TABLE
  2
APPID
  5
9
330
0
100
AcDbSymbolTable
 70
     1
  0
APPID
  5
12
330
9
100
AcDbSymbolTableRecord
100
AcDbRegAppTableRecord
  2
ACAD
 70
     0
  0
ENDTAB
  0
TABLE
  2
DIMSTYLE
  5
A
330
0
100
AcDbSymbolTable
 70
    13
100
AcDbDimStyleTable
 71
     2
340
8E
340
2B
  0
DIMSTYLE
105
2B
330
A
100
AcDbSymbolTableRecord
100
AcDbDimStyleTableRecord
  2
Standard
 70
     0
340
11
  0
DIMSTYLE
105
88
330
A
100
AcDbSymbolTableRecord
100
AcDbDimStyleTableRecord
  2
Default - Fraction (ANSI)
 70
     0
 41
0.0984251946210861
 42
0.0625
 43
0.2362204724409449
 44
0.125
 45
0.00000001
 46
0.3937007874015748
 78
    12
 79
     3
140
0.2400000095367432
146
0.5
147
0.031496062992126
171
     1
176
   256
177
   256
178
   256
272
     2
274
     1
276
     2
277
     5
284
    12
286
    12
340
84
371
    -1
372
    -1
  0
DIMSTYLE
105
89
330
A
100
AcDbSymbolTableRecord
100
AcDbDimStyleTableRecord
  2
Default - Fraction (ANSI)$7
 70
     0
 41
0.0984251946210861
 42
0.0625
 43
0.2362204724409449
 44
0.125
 45
0.00000001
 46
0.3937007874015748
 78
    12
 79
     3
140
0.2400000095367432
146
0.5
147
0.031496062992126
171
     1
176
   256
177
   256
178
   256
272
     2
274
     1
276
     2
277
     5
284
    12
286
    12
340
84
371
    -1
372
    -1
  0
DIMSTYLE
105
8A
330
A
100
AcDbSymbolTableRecord
100
AcDbDimStyleTableRecord
  2
Default - mm (ANSI)
 70
     0
 41
0.0984251946210861
 42
0.063
 43
0.2362204724409449
 44
0.125
 45
0.00000001
 46
0.3937007874015748
 73
     0
140
0.2400000095367432
143
1.0
144
25.4
146
0.5
147
0.031496062992126
171
     1
176
   256
177
   256
178
   256
179
     1
271
     2
272
     2
274
     1
340
84
371
    -1
372
    -1
  0
DIMSTYLE
105
8B
330
A
100
AcDbSymbolTableRecord
100
AcDbDimStyleTableRecord
  2
Default - mm (ANSI)$7
 70
     0
 41
0.0984251946210861
 42
0.063
 43
0.2362204724409449
 44
0.125
 45
0.00000001
 46
0.3937007874015748
 73
     0
140
0.2400000095367432
143
1.0
144
25.4
146
0.5
147
0.031496062992126
171
     1
176
   256
177
   256
178
   256
179
     1
271
     2
272
     2
274
     1
340
84
371
    -1
372
    -1
  0
DIMSTYLE
105
8C
330
A
100
AcDbSymbolTableRecord
100
AcDbDimStyleTableRecord
  2
Default - mm [in] (ANSI)
 70
     0
  4
 in
 41
0.0984251946210861
 42
0.063
 43
0.25
 44
0.125
 45
0.00000001
 46
0.3937007874015748
 73
     0
 78
     4
 79
     1
140
0.2400000095367432
143
0.03937
144
25.4
146
0.5
147
0.031496062992126
170
     1
171
     3
176
   256
177
   256
178
   256
179
     1
271
     2
272
     2
274
     3
284
     4
286
     4
340
84
371
    -1
372
    -1
  0
DIMSTYLE
105
8D
330
A
100
AcDbSymbolTableRecord
100
AcDbDimStyleTableRecord
  2
Default - mm [in] (ANSI)$7
 70
     0
  4
 in
 41
0.0984251946210861
 42
0.063
 43
0.25
 44
0.125
 45
0.00000001
 46
0.3937007874015748
 73
     0
 78
     4
 79
     1
140
0.2400000095367432
143
0.03937
144
25.4
146
0.5
147
0.031496062992126
170
     1
171
     3
176
   256
177
   256
178
   256
179
     1
271
     2
272
     2
274
     3
284
     4
286
     4
340
84
371
    -1
372
    -1
  0
DIMSTYLE
105
8E
102
{ACAD_REACTORS
330
473
330
554
330
620
330
6EC
330
7B8
330
884
330
950
330
A30
330
B10
330
BF0
102
}
330
A
100
AcDbSymbolTableRecord
100
AcDbDimStyleTableRecord
  2
Default (ANSI)
 70
     0
 41
0.0984251946210861
 42
0.0625
 43
0.2362204724409449
 44
0.125
 45
0.00000001
 46
0.3937007874015748
140
0.2400000095367432
147
0.031496062992126
171
     1
176
   256
177
   256
178
   256
271
     3
272
     2
274
     1
340
84
371
    -1
372
    -1
  0
DIMSTYLE
105
8F
330
A
100
AcDbSymbolTableRecord
100
AcDbDimStyleTableRecord
  2
Default (ANSI)$7
 70
     0
 41
0.0984251946210861
 42
0.0625
 43
0.2362204724409449
 44
0.125
 45
0.00000001
 46
0.3937007874015748
140
0.2400000095367432
147
0.031496062992126
171
     1
176
   256
177
   256
178
   256
271
     3
272
     2
274
     1
340
84
371
    -1
372
    -1
  0
DIMSTYLE
105
9E
330
A
100
AcDbSymbolTableRecord
100
AcDbDimStyleTableRecord
  2
Miscellaneous Object (ANSI)
 70
     0
 41
0.1968503892421722
 42
0.0625
 43
0.2362204724409449
 44
0.125
 45
0.00000001
 46
0.3937007874015748
140
0.1799999922513962
146
0.666666721856155
147
0.031496062992126
171
     1
176
   256
177
   256
178
   256
271
     2
272
     2
274
     1
340
80
341
90
371
    -1
372
    -1
  0
DIMSTYLE
105
9F
330
A
100
AcDbSymbolTableRecord
100
AcDbDimStyleTableRecord
  2
Miscellaneous Object (ANSI)$7
 70
     0
 41
0.1959999948740005
 42
0.0625
 43
0.2362204724409449
 44
0.125
 45
0.00000001
 46
0.3937007874015748
140
0.1799999922513962
146
0.666666721856155
147
0.031496062992126
171
     1
176
   256
177
   256
178
   256
271
     2
272
     2
274
     1
340
80
341
90
371
    -1
372
    -1
  0
DIMSTYLE
105
A0
330
A
100
AcDbSymbolTableRecord
100
AcDbDimStyleTableRecord
  2
Alternate (ANSI)
 70
     0
 41
0.0979999974370003
340
11
342
A1
  0
DIMSTYLE
105
B2
330
A
100
AcDbSymbolTableRecord
100
AcDbDimStyleTableRecord
  2
Datum (ANSI)
 70
     0
 41
0.0979999974370003
340
11
342
A1
  0
ENDTAB
  0
TABLE
  2
BLOCK_RECORD
  5
1
330
0
100
AcDbSymbolTable
 70
    26
  0
BLOCK_RECORD
  5
23
330
1
100
AcDbSymbolTableRecord
100
AcDbBlockTableRecord
  2
*Model_Space
340
26
  0
BLOCK_RECORD
  5
1F
330
1
100
AcDbSymbolTableRecord
100
AcDbBlockTableRecord
  2
*Paper_Space
340
22
  0
BLOCK_RECORD
  5
27
330
1
100
AcDbSymbolTableRecord
100
AcDbBlockTableRecord
  2
*Paper_Space0
340
2A
  0
BLOCK_RECORD
  5
90
330
1
100
AcDbSymbolTableRecord
100
AcDbBlockTableRecord
  2
Filled-1
340
0
  0
BLOCK_RECORD
  5
A1
330
1
100
AcDbSymbolTableRecord
100
AcDbBlockTableRecord
  2
_Closed
340
0
  0
BLOCK_RECORD
  5
A8
330
1
100
AcDbSymbolTableRecord
100
AcDbBlockTableRecord
  2
DatumFilled45
340
0
  0
BLOCK_RECORD
  5
B3
330
1
100
AcDbSymbolTableRecord
100
AcDbBlockTableRecord
  2
Borders Default Border
340
0
102
{BLKREFS
331
F3
102
}
  0
BLOCK_RECORD
  5
F4
330
1
100
AcDbSymbolTableRecord
100
AcDbBlockTableRecord
  2
Title Blocks ANSI - Large
340
0
102
{BLKREFS
331
123
102
}
  0
BLOCK_RECORD
  5
475
330
1
100
AcDbSymbolTableRecord
100
AcDbBlockTableRecord
  2
*D6
340
0
  0
BLOCK_RECORD
  5
555
330
1
100
AcDbSymbolTableRecord
100
AcDbBlockTableRecord
  2
*D7
340
0
  0
BLOCK_RECORD
  5
621
330
1
100
AcDbSymbolTableRecord
100
AcDbBlockTableRecord
  2
*D8
340
0
  0
BLOCK_RECORD
  5
6ED
330
1
100
AcDbSymbolTableRecord
100
AcDbBlockTableRecord
  2
*D9
340
0
  0
BLOCK_RECORD
  5
7B9
330
1
100
AcDbSymbolTableRecord
100
AcDbBlockTableRecord
  2
*D10
340
0
  0
BLOCK_RECORD
  5
885
330
1
100
AcDbSymbolTableRecord
100
AcDbBlockTableRecord
  2
*D11
340
0
  0
BLOCK_RECORD
  5
951
330
1
100
AcDbSymbolTableRecord
100
AcDbBlockTableRecord
  2
*D12
340
0
  0
BLOCK_RECORD
  5
A31
330
1
100
AcDbSymbolTableRecord
100
AcDbBlockTableRecord
  2
*D13
340
0
  0
BLOCK_RECORD
  5
B11
330
1
100
AcDbSymbolTableRecord
100
AcDbBlockTableRecord
  2
*D14
340
0
  0
BLOCK_RECORD
  5
BF1
330
1
100
AcDbSymbolTableRecord
100
AcDbBlockTableRecord
  2
*D15
340
0
  0
BLOCK_RECORD
  5
CBE
330
1
100
AcDbSymbolTableRecord
100
AcDbBlockTableRecord
  2
*D16
340
0
  0
BLOCK_RECORD
  5
CCB
330
1
100
AcDbSymbolTableRecord
100
AcDbBlockTableRecord
  2
*D17
340
0
  0
BLOCK_RECORD
  5
CD8
330
1
100
AcDbSymbolTableRecord
100
AcDbBlockTableRecord
  2
*D18
340
0
  0
BLOCK_RECORD
  5
CE5
330
1
100
AcDbSymbolTableRecord
100
AcDbBlockTableRecord
  2
*D19
340
0
  0
BLOCK_RECORD
  5
CF2
330
1
100
AcDbSymbolTableRecord
100
AcDbBlockTableRecord
  2
*D20
340
0
  0
BLOCK_RECORD
  5
CFF
330
1
100
AcDbSymbolTableRecord
100
AcDbBlockTableRecord
  2
*D21
340
0
  0
BLOCK_RECORD
  5
D0C
330
1
100
AcDbSymbolTableRecord
100
AcDbBlockTableRecord
  2
*D22
340
0
  0
BLOCK_RECORD
  5
D19
330
1
100
AcDbSymbolTableRecord
100
AcDbBlockTableRecord
  2
*D23
340
0
  0
BLOCK_RECORD
  5
D26
330
1
100
AcDbSymbolTableRecord
100
AcDbBlockTableRecord
  2
*D24
340
0
  0
BLOCK_RECORD
  5
D33
330
1
100
AcDbSymbolTableRecord
100
AcDbBlockTableRecord
  2
*D25
340
0
  0
ENDTAB
  0
ENDSEC
  0
SECTION
  2
BLOCKS
  0
BLOCK
  5
24
330
23
100
AcDbEntity
  8
0
100
AcDbBlockBegin
  2
*Model_Space
 70
     0
 10
0.0
 20
0.0
 30
0.0
  3
*Model_Space
  1

  0
ENDBLK
  5
25
330
23
100
AcDbEntity
  8
0
100
AcDbBlockEnd
  0
BLOCK
  5
20
330
1F
100
AcDbEntity
 67
     1
  8
0
100
AcDbBlockBegin
  2
*Paper_Space
 70
     0
 10
0.0
 20
0.0
 30
0.0
  3
*Paper_Space
  1

  0
ENDBLK
  5
21
330
1F
100
AcDbEntity
 67
     1
  8
0
100
AcDbBlockEnd
  0
BLOCK
  5
28
330
27
100
AcDbEntity
  8
0
100
AcDbBlockBegin
  2
*Paper_Space0
 70
     0
 10
0.0
 20
0.0
 30
0.0
  3
*Paper_Space0
  1

  0
ENDBLK
  5
29
330
27
100
AcDbEntity
  8
0
100
AcDbBlockEnd
  0
BLOCK
  5
91
330
90
100
AcDbEntity
  8
0
100
AcDbBlockBegin
  2
Filled-1
 70
     0
 10
0.0
 20
0.0
 30
0.0
  3
Filled-1
  1

  0
LINE
  5
93
330
90
100
AcDbEntity
  8
0
 62
     0
100
AcDbLine
 10
-0.9999999999999998
 20
0.0
 30
0.0
 11
0.0
 21
0.0
 31
0.0
  0
POLYLINE
  5
94
330
90
100
AcDbEntity
  8
0
 62
     0
100
AcDb2dPolyline
 66
     1
 10
0.0
 20
0.0
 30
0.0
 70
   128
  0
VERTEX
  5
95
330
94
100
AcDbEntity
  8
0
 62
     0
100
AcDbVertex
100
AcDb2dVertex
 10
-0.9999999999999998
 20
-0.0994897959183674
 30
0.0
  0
VERTEX
  5
96
330
94
100
AcDbEntity
  8
0
 62
     0
100
AcDbVertex
100
AcDb2dVertex
 10
0.0
 20
0.0
 30
0.0
  0
VERTEX
  5
98
330
94
100
AcDbEntity
  8
0
 62
     0
100
AcDbVertex
100
AcDb2dVertex
 10
-0.9999999999999998
 20
0.0994897959183674
 30
0.0
  0
VERTEX
  5
99
330
94
100
AcDbEntity
  8
0
 62
     0
100
AcDbVertex
100
AcDb2dVertex
 10
-0.9999999999999998
 20
-0.0994897959183674
 30
0.0
  0
SEQEND
  5
97
330
94
100
AcDbEntity
  8
0
 62
     0
  0
SOLID
  5
9A
330
90
100
AcDbEntity
  8
0
 62
     0
100
AcDbTrace
 10
-0.9999999999999998
 20
-0.0994897959183674
 30
0.0
 11
0.0
 21
0.0
 31
0.0
 12
-0.9999999999999998
 22
0.0994897959183674
 32
0.0
 13
-0.9999999999999998
 23
-0.0994897959183674
 33
0.0
  0
LINE
  5
9B
330
90
100
AcDbEntity
  8
0
 62
     0
100
AcDbLine
 10
-0.9999999999999998
 20
-0.0994897959183674
 30
0.0
 11
0.0
 21
0.0
 31
0.0
  0
LINE
  5
9C
330
90
100
AcDbEntity
  8
0
 62
     0
100
AcDbLine
 10
0.0
 20
0.0
 30
0.0
 11
-0.9999999999999998
 21
0.0994897959183674
 31
0.0
  0
LINE
  5
9D
330
90
100
AcDbEntity
  8
0
 62
     0
100
AcDbLine
 10
-0.9999999999999998
 20
0.0994897959183674
 30
0.0
 11
-0.9999999999999998
 21
-0.0994897959183674
 31
0.0
  0
ENDBLK
  5
92
330
90
100
AcDbEntity
  8
0
100
AcDbBlockEnd
  0
BLOCK
  5
A6
330
A1
100
AcDbEntity
  8
0
100
AcDbBlockBegin
  2
_Closed
 70
     0
 10
0.0
 20
0.0
 30
0.0
  3
_Closed
  1

  0
LINE
  5
A2
330
A1
100
AcDbEntity
  8
0
  6
ByBlock
 62
     0
370
    -2
100
AcDbLine
 10
-1.0
 20
0.1666666666666666
 30
0.0
 11
0.0
 21
0.0
 31
0.0
  0
LINE
  5
A3
330
A1
100
AcDbEntity
  8
0
  6
ByBlock
 62
     0
370
    -2
100
AcDbLine
 10
0.0
 20
0.0
 30
0.0
 11
-1.0
 21
-0.1666666666666666
 31
0.0
  0
LINE
  5
A4
330
A1
100
AcDbEntity
  8
0
  6
ByBlock
 62
     0
370
    -2
100
AcDbLine
 10
-1.0
 20
0.1666666666666666
 30
0.0
 11
-1.0
 21
-0.1666666666666666
 31
0.0
  0
LINE
  5
A5
330
A1
100
AcDbEntity
  8
0
  6
ByBlock
 62
     0
370
    -2
100
AcDbLine
 10
0.0
 20
0.0
 30
0.0
 11
-1.0
 21
0.0
 31
0.0
  0
ENDBLK
  5
A7
330
A1
100
AcDbEntity
  8
0
100
AcDbBlockEnd
  0
BLOCK
  5
A9
330
A8
100
AcDbEntity
  8
0
100
AcDbBlockBegin
  2
DatumFilled45
 70
     0
 10
0.0
 20
0.0
 30
0.0
  3
DatumFilled45
  1

  0
POLYLINE
  5
AB
330
A8
100
AcDbEntity
  8
0
 62
     0
100
AcDb2dPolyline
 66
     1
 10
0.0
 20
0.0
 30
0.0
 70
   128
  0
VERTEX
  5
AC
330
AB
100
AcDbEntity
  8
0
 62
     0
100
AcDbVertex
100
AcDb2dVertex
 10
0.0
 20
0.9999999999999998
 30
0.0
  0
VERTEX
  5
AD
330
AB
100
AcDbEntity
  8
0
 62
     0
100
AcDbVertex
100
AcDb2dVertex
 10
0.0
 20
-0.9999999999999998
 30
0.0
  0
VERTEX
  5
AF
330
AB
100
AcDbEntity
  8
0
 62
     0
100
AcDbVertex
100
AcDb2dVertex
 10
-0.9999999999999998
 20
0.0
 30
0.0
  0
VERTEX
  5
B0
330
AB
100
AcDbEntity
  8
0
 62
     0
100
AcDbVertex
100
AcDb2dVertex
 10
0.0
 20
0.9999999999999998
 30
0.0
  0
SEQEND
  5
AE
330
AB
100
AcDbEntity
  8
0
 62
     0
  0
SOLID
  5
B1
330
A8
100
AcDbEntity
  8
0
 62
     0
100
AcDbTrace
 10
0.0
 20
0.9999999999999998
 30
0.0
 11
0.0
 21
-0.9999999999999998
 31
0.0
 12
-0.9999999999999998
 22
0.0
 32
0.0
 13
0.0
 23
0.9999999999999998
 33
0.0
  0
ENDBLK
  5
AA
330
A8
100
AcDbEntity
  8
0
100
AcDbBlockEnd
  0
BLOCK
  5
B4
330
B3
100
AcDbEntity
  8
0
100
AcDbBlockBegin
  2
Borders Default Border
 70
     0
 10
0.0
 20
0.0
 30
0.0
  3
Borders Default Border
  1

  0
POLYLINE
  5
B6
330
B3
100
AcDbEntity
  8
Border (ANSI)
100
AcDb2dPolyline
 66
     1
 10
0.0
 20
0.0
 30
0.0
 70
   128
  0
VERTEX
  5
B7
330
B6
100
AcDbEntity
  8
Border (ANSI)
100
AcDbVertex
100
AcDb2dVertex
 10
0.7499999887361301
 20
0.4999999924907534
 30
0.0
  0
VERTEX
  5
B8
330
B6
100
AcDbEntity
  8
Border (ANSI)
100
AcDbVertex
100
AcDb2dVertex
 10
0.7499999887361301
 20
16.49999993992603
 30
0.0
  0
VERTEX
  5
BA
330
B6
100
AcDbEntity
  8
Border (ANSI)
100
AcDbVertex
100
AcDb2dVertex
 10
21.24999939926027
 20
16.49999993992603
 30
0.0
  0
VERTEX
  5
BB
330
B6
100
AcDbEntity
  8
Border (ANSI)
100
AcDbVertex
100
AcDb2dVertex
 10
21.24999939926027
 20
0.4999999924907534
 30
0.0
  0
VERTEX
  5
BC
330
B6
100
AcDbEntity
  8
Border (ANSI)
100
AcDbVertex
100
AcDb2dVertex
 10
0.7499999887361301
 20
0.4999999924907534
 30
0.0
  0
SEQEND
  5
B9
330
B6
100
AcDbEntity
  8
Border (ANSI)
  0
POLYLINE
  5
BD
330
B3
100
AcDbEntity
  8
Border (ANSI)
100
AcDb2dPolyline
 66
     1
 10
0.0
 20
0.0
 30
0.0
 70
   128
  0
VERTEX
  5
BE
330
BD
100
AcDbEntity
  8
Border (ANSI)
100
AcDbVertex
100
AcDb2dVertex
 10
11.0000002102589
 20
0.2499999962453767
 30
0.0
  0
VERTEX
  5
BF
330
BD
100
AcDbEntity
  8
Border (ANSI)
100
AcDbVertex
100
AcDb2dVertex
 10
11.0000002102589
 20
0.4999999924907534
 30
0.0
  0
VERTEX
  5
C1
330
BD
100
AcDbEntity
  8
Border (ANSI)
100
AcDbVertex
100
AcDb2dVertex
 10
10.91339757123331
 20
0.3499999994368065
 30
0.0
  0
VERTEX
  5
C2
330
BD
100
AcDbEntity
  8
Border (ANSI)
100
AcDbVertex
100
AcDb2dVertex
 10
11.08660284928449
 20
0.3499999994368065
 30
0.0
  0
VERTEX
  5
C3
330
BD
100
AcDbEntity
  8
Border (ANSI)
100
AcDbVertex
100
AcDb2dVertex
 10
11.0000002102589
 20
0.4999999924907534
 30
0.0
  0
SEQEND
  5
C0
330
BD
100
AcDbEntity
  8
Border (ANSI)
  0
POLYLINE
  5
C4
330
B3
100
AcDbEntity
  8
Border (ANSI)
100
AcDb2dPolyline
 66
     1
 10
0.0
 20
0.0
 30
0.0
 70
   128
  0
VERTEX
  5
C5
330
C4
100
AcDbEntity
  8
Border (ANSI)
100
AcDbVertex
100
AcDb2dVertex
 10
11.0000002102589
 20
16.74999927911233
 30
0.0
  0
VERTEX
  5
C6
330
C4
100
AcDbEntity
  8
Border (ANSI)
100
AcDbVertex
100
AcDb2dVertex
 10
11.0000002102589
 20
16.49999993992603
 30
0.0
  0
VERTEX
  5
C8
330
C4
100
AcDbEntity
  8
Border (ANSI)
100
AcDbVertex
100
AcDb2dVertex
 10
10.91339757123331
 20
16.65000014417753
 30
0.0
  0
VERTEX
  5
C9
330
C4
100
AcDbEntity
  8
Border (ANSI)
100
AcDbVertex
100
AcDb2dVertex
 10
11.08660284928449
 20
16.65000014417753
 30
0.0
  0
VERTEX
  5
CA
330
C4
100
AcDbEntity
  8
Border (ANSI)
100
AcDbVertex
100
AcDb2dVertex
 10
11.0000002102589
 20
16.49999993992603
 30
0.0
  0
SEQEND
  5
C7
330
C4
100
AcDbEntity
  8
Border (ANSI)
  0
POLYLINE
  5
CB
330
B3
100
AcDbEntity
  8
Border (ANSI)
100
AcDb2dPolyline
 66
     1
 10
0.0
 20
0.0
 30
0.0
 70
   128
  0
VERTEX
  5
CC
330
CB
100
AcDbEntity
  8
Border (ANSI)
100
AcDbVertex
100
AcDb2dVertex
 10
0.4999999924907534
 20
8.500000060073972
 30
0.0
  0
VERTEX
  5
CD
330
CB
100
AcDbEntity
  8
Border (ANSI)
100
AcDbVertex
100
AcDb2dVertex
 10
0.7499999887361301
 20
8.500000060073972
 30
0.0
  0
VERTEX
  5
CF
330
CB
100
AcDbEntity
  8
Border (ANSI)
100
AcDbVertex
100
AcDb2dVertex
 10
0.6000000191485788
 20
8.586602699099563
 30
0.0
  0
VERTEX
  5
D0
330
CB
100
AcDbEntity
  8
Border (ANSI)
100
AcDbVertex
100
AcDb2dVertex
 10
0.6000000191485788
 20
8.413397421048381
 30
0.0
  0
VERTEX
  5
D1
330
CB
100
AcDbEntity
  8
Border (ANSI)
100
AcDbVertex
100
AcDb2dVertex
 10
0.7499999887361301
 20
8.500000060073972
 30
0.0
  0
SEQEND
  5
CE
330
CB
100
AcDbEntity
  8
Border (ANSI)
  0
POLYLINE
  5
D2
330
B3
100
AcDbEntity
  8
Border (ANSI)
100
AcDb2dPolyline
 66
     1
 10
0.0
 20
0.0
 30
0.0
 70
   128
  0
VERTEX
  5
D3
330
D2
100
AcDbEntity
  8
Border (ANSI)
100
AcDbVertex
100
AcDb2dVertex
 10
21.50000024029589
 20
8.500000060073972
 30
0.0
  0
VERTEX
  5
D4
330
D2
100
AcDbEntity
  8
Border (ANSI)
100
AcDbVertex
100
AcDb2dVertex
 10
21.24999939926027
 20
8.500000060073972
 30
0.0
  0
VERTEX
  5
D6
330
D2
100
AcDbEntity
  8
Border (ANSI)
100
AcDbVertex
100
AcDb2dVertex
 10
21.39999960351178
 20
8.586602699099563
 30
0.0
  0
VERTEX
  5
D7
330
D2
100
AcDbEntity
  8
Border (ANSI)
100
AcDbVertex
100
AcDb2dVertex
 10
21.39999960351178
 20
8.413397421048381
 30
0.0
  0
VERTEX
  5
D8
330
D2
100
AcDbEntity
  8
Border (ANSI)
100
AcDbVertex
100
AcDb2dVertex
 10
21.24999939926027
 20
8.500000060073972
 30
0.0
  0
SEQEND
  5
D5
330
D2
100
AcDbEntity
  8
Border (ANSI)
  0
LINE
  5
D9
330
B3
100
AcDbEntity
  8
Border (ANSI)
100
AcDbLine
 10
5.500000105129451
 20
0.4999999924907534
 30
0.0
 11
5.500000105129451
 21
0.2199999929413082
 31
0.0
  0
LINE
  5
DA
330
B3
100
AcDbEntity
  8
Border (ANSI)
100
AcDbLine
 10
5.500000105129451
 20
16.49999993992603
 30
0.0
 11
5.500000105129451
 21
16.78000022107221
 31
0.0
  0
LINE
  5
DB
330
B3
100
AcDbEntity
  8
Border (ANSI)
100
AcDbLine
 10
16.49999993992603
 20
0.4999999924907534
 30
0.0
 11
16.49999993992603
 21
0.2199999929413082
 31
0.0
  0
LINE
  5
DC
330
B3
100
AcDbEntity
  8
Border (ANSI)
100
AcDbLine
 10
16.49999993992603
 20
16.49999993992603
 30
0.0
 11
16.49999993992603
 21
16.78000022107221
 31
0.0
  0
MTEXT
  5
DE
330
B3
100
AcDbEntity
  8
Border (ANSI)
100
AcDbMText
 10
19.15995137944935
 20
16.53999999999999
 30
0.0
 40
0.2400000029661524
 41
0.0
 71
     7
 72
     1
  1
1
  7
Text Style41
 73
     1
 44
1.0
  0
MTEXT
  5
E0
330
B3
100
AcDbEntity
  8
Border (ANSI)
100
AcDbMText
 10
19.15995137944935
 20
0.2199999970338476
 30
0.0
 40
0.2400000029661524
 41
0.0
 71
     7
 72
     1
  1
1
  7
Text Style41
 73
     1
 44
1.0
  0
MTEXT
  5
E1
330
B3
100
AcDbEntity
  8
Border (ANSI)
100
AcDbMText
 10
13.65995137944935
 20
16.53999999999999
 30
0.0
 40
0.2400000029661524
 41
0.0
 71
     7
 72
     1
  1
2
  7
Text Style41
 73
     1
 44
1.0
  0
MTEXT
  5
E2
330
B3
100
AcDbEntity
  8
Border (ANSI)
100
AcDbMText
 10
13.65995137944935
 20
0.2199999970338476
 30
0.0
 40
0.2400000029661524
 41
0.0
 71
     7
 72
     1
  1
2
  7
Text Style41
 73
     1
 44
3.078215599060058
  0
MTEXT
  5
E3
330
B3
100
AcDbEntity
  8
Border (ANSI)
100
AcDbMText
 10
8.159951379449349
 20
16.53494327394489
 30
0.0
 40
0.2400000029661524
 41
0.0
 71
     7
 72
     1
  1
3
  7
Text Style41
 73
     1
 44
1.0
  0
MTEXT
  5
E4
330
B3
100
AcDbEntity
  8
Border (ANSI)
100
AcDbMText
 10
8.159951379449349
 20
0.2149432709787451
 30
0.0
 40
0.2400000029661524
 41
0.0
 71
     7
 72
     1
  1
3
  7
Text Style41
 73
     1
 44
1.0
  0
MTEXT
  5
E5
330
B3
100
AcDbEntity
  8
Border (ANSI)
100
AcDbMText
 10
2.65995137944935
 20
16.53999999999999
 30
0.0
 40
0.2400000029661524
 41
0.0
 71
     7
 72
     1
  1
4
  7
Text Style41
 73
     1
 44
1.0
  0
MTEXT
  5
E6
330
B3
100
AcDbEntity
  8
Border (ANSI)
100
AcDbMText
 10
2.65995137944935
 20
0.2199999970338476
 30
0.0
 40
0.2400000029661524
 41
0.0
 71
     7
 72
     1
  1
4
  7
Text Style41
 73
     1
 44
1.0
  0
LINE
  5
E7
330
B3
100
AcDbEntity
  8
Border (ANSI)
100
AcDbLine
 10
0.7499999887361301
 20
4.250000030036986
 30
0.0
 11
0.4699999891866849
 21
4.250000030036986
 31
0.0
  0
LINE
  5
E8
330
B3
100
AcDbEntity
  8
Border (ANSI)
100
AcDbLine
 10
21.24999939926027
 20
4.250000030036986
 30
0.0
 11
21.52999968040646
 21
4.250000030036986
 31
0.0
  0
LINE
  5
E9
330
B3
100
AcDbEntity
  8
Border (ANSI)
100
AcDbLine
 10
0.7499999887361301
 20
12.7499993391863
 30
0.0
 11
0.4699999891866849
 21
12.7499993391863
 31
0.0
  0
LINE
  5
EA
330
B3
100
AcDbEntity
  8
Border (ANSI)
100
AcDbLine
 10
21.24999939926027
 20
12.7499993391863
 30
0.0
 11
21.52999968040646
 21
12.7499993391863
 31
0.0
  0
MTEXT
  5
EB
330
B3
100
AcDbEntity
  8
Border (ANSI)
100
AcDbMText
 10
0.4894489456912665
 20
2.004999998516923
 30
0.0
 40
0.2400000029661524
 41
0.0
 71
     7
 72
     1
  1
A
  7
Text Style41
 73
     1
 44
1.0
  0
MTEXT
  5
EC
330
B3
100
AcDbEntity
  8
Border (ANSI)
100
AcDbMText
 10
21.30944894865741
 20
2.004999998516923
 30
0.0
 40
0.2400000029661524
 41
0.0
 71
     7
 72
     1
  1
A
  7
Text Style41
 73
     1
 44
1.0
  0
MTEXT
  5
ED
330
B3
100
AcDbEntity
  8
Border (ANSI)
100
AcDbMText
 10
0.4927552669630276
 20
6.254999998516923
 30
0.0
 40
0.2400000029661524
 41
0.0
 71
     7
 72
     1
  1
B
  7
Text Style41
 73
     1
 44
3.174168825149536
  0
MTEXT
  5
EE
330
B3
100
AcDbEntity
  8
Border (ANSI)
100
AcDbMText
 10
21.31275526992918
 20
6.254999998516923
 30
0.0
 40
0.2400000029661524
 41
0.0
 71
     7
 72
     1
  1
B
  7
Text Style41
 73
     1
 44
1.0
  0
MTEXT
  5
EF
330
B3
100
AcDbEntity
  8
Border (ANSI)
100
AcDbMText
 10
0.4909076168405729
 20
10.50072123031645
 30
0.0
 40
0.2400000029661524
 41
0.0
 71
     7
 72
     1
  1
C
  7
Text Style41
 73
     1
 44
1.0
  0
MTEXT
  5
F0
330
B3
100
AcDbEntity
  8
Border (ANSI)
100
AcDbMText
 10
21.31090761980672
 20
10.50072123031645
 30
0.0
 40
0.2400000029661524
 41
0.0
 71
     7
 72
     1
  1
C
  7
Text Style41
 73
     1
 44
1.0
  0
MTEXT
  5
F1
330
B3
100
AcDbEntity
  8
Border (ANSI)
100
AcDbMText
 10
0.4780713107266764
 20
14.75499999851692
 30
0.0
 40
0.2400000029661524
 41
0.0
 71
     7
 72
     1
  1
D
  7
Text Style41
 73
     1
 44
1.0
  0
MTEXT
  5
F2
330
B3
100
AcDbEntity
  8
Border (ANSI)
100
AcDbMText
 10
21.29807131369283
 20
14.75499999851692
 30
0.0
 40
0.2400000029661524
 41
0.0
 71
     7
 72
     1
  1
D
  7
Text Style41
 73
     1
 44
1.0
  0
ENDBLK
  5
B5
330
B3
100
AcDbEntity
  8
0
100
AcDbBlockEnd
  0
BLOCK
  5
F5
330
F4
100
AcDbEntity
  8
0
100
AcDbBlockBegin
  2
Title Blocks ANSI - Large
 70
     2
 10
0.0
 20
0.0
 30
0.0
  3
Title Blocks ANSI - Large
  1

  0
LINE
  5
F7
330
F4
100
AcDbEntity
  8
Title (ANSI)
100
AcDbLine
 10
5.000010039370078
 20
7.44998412571846
 30
0.0
 11
5.000010039370078
 21
4.949984125718459
 31
0.0
  0
LINE
  5
F8
330
F4
100
AcDbEntity
  8
Title (ANSI)
100
AcDbLine
 10
5.000010039370078
 20
4.949984125718459
 30
0.0
 11
12.75001003937007
 21
4.94998412571846
 31
0.0
  0
LINE
  5
F9
330
F4
100
AcDbEntity
  8
Title (ANSI)
100
AcDbLine
 10
12.75001003937007
 20
4.94998412571846
 30
0.0
 11
12.75001003937007
 21
7.449984125718461
 31
0.0
  0
LINE
  5
FA
330
F4
100
AcDbEntity
  8
Title (ANSI)
100
AcDbLine
 10
12.75001003937007
 20
7.449984125718461
 30
0.0
 11
5.000010039370079
 21
7.44998412571846
 31
0.0
  0
LINE
  5
FB
330
F4
100
AcDbEntity
  8
Title (ANSI)
370
    35
100
AcDbLine
 10
7.75001003937008
 20
4.949984125718459
 30
0.0
 11
7.750010039370074
 21
7.44998412571846
 31
0.0
  0
LINE
  5
FC
330
F4
100
AcDbEntity
  8
Title (ANSI)
370
    35
100
AcDbLine
 10
7.750010039370077
 20
6.829987900521605
 30
0.0
 11
12.75001003937007
 21
6.829987900521608
 31
0.0
  0
LINE
  5
FD
330
F4
100
AcDbEntity
  8
Title (ANSI)
370
    35
100
AcDbLine
 10
12.75001003937007
 20
5.699985631623981
 30
0.0
 11
7.750010039370078
 21
5.699985631623971
 31
0.0
  0
LINE
  5
FE
330
F4
100
AcDbEntity
  8
Title (ANSI)
370
    35
100
AcDbLine
 10
12.75001003937007
 20
5.199984125718473
 30
0.0
 11
7.750010039370078
 21
5.199984125718462
 31
0.0
  0
LINE
  5
FF
330
F4
100
AcDbEntity
  8
Title (ANSI)
370
    35
100
AcDbLine
 10
7.750010039370078
 20
5.199984125718462
 30
0.0
 11
5.000010039370078
 21
5.199984125718455
 31
0.0
  0
LINE
  5
100
330
F4
100
AcDbEntity
  8
Title (ANSI)
370
    35
100
AcDbLine
 10
8.250010039370078
 20
5.199984125718463
 30
0.0
 11
8.250010039370078
 21
5.699985631623972
 31
0.0
  0
LINE
  5
101
330
F4
100
AcDbEntity
  8
Title (ANSI)
370
    35
100
AcDbLine
 10
8.87001780984252
 20
5.199984125718464
 30
0.0
 11
8.87001780984252
 21
4.949984125718459
 31
0.0
  0
LINE
  5
102
330
F4
100
AcDbEntity
  8
Title (ANSI)
370
    35
100
AcDbLine
 10
9.250010039370078
 20
5.199984125718465
 30
0.0
 11
9.250010039370078
 21
5.699985631623975
 31
0.0
  0
LINE
  5
103
330
F4
100
AcDbEntity
  8
Title (ANSI)
370
    35
100
AcDbLine
 10
10.75001003937008
 20
5.199984125718469
 30
0.0
 11
10.75001003937008
 21
4.949984125718459
 31
0.0
  0
LINE
  5
104
330
F4
100
AcDbEntity
  8
Title (ANSI)
370
    35
100
AcDbLine
 10
12.25001003937008
 20
5.199984125718472
 30
0.0
 11
12.25001003937008
 21
5.69998563162398
 31
0.0
  0
LINE
  5
105
330
F4
100
AcDbEntity
  8
Title (ANSI)
370
    35
100
AcDbLine
 10
6.750013553149605
 20
4.949984125718459
 30
0.0
 11
6.750013553149605
 21
7.44998412571846
 31
0.0
  0
LINE
  5
106
330
F4
100
AcDbEntity
  8
Title (ANSI)
370
    35
100
AcDbLine
 10
5.000010039370078
 20
5.574984125718456
 30
0.0
 11
7.750010039370078
 21
5.574984125718462
 31
0.0
  0
LINE
  5
107
330
F4
100
AcDbEntity
  8
Title (ANSI)
370
    35
100
AcDbLine
 10
5.000010039370078
 20
5.949984125718457
 30
0.0
 11
7.750010039370077
 21
5.949984125718462
 31
0.0
  0
LINE
  5
108
330
F4
100
AcDbEntity
  8
Title (ANSI)
370
    35
100
AcDbLine
 10
5.000010039370078
 20
6.324984125718456
 30
0.0
 11
7.750010039370077
 21
6.324984125718462
 31
0.0
  0
LINE
  5
109
330
F4
100
AcDbEntity
  8
Title (ANSI)
370
    35
100
AcDbLine
 10
5.000010039370078
 20
6.699984125718456
 30
0.0
 11
7.750010039370075
 21
6.699984125718462
 31
0.0
  0
LINE
  5
10A
330
F4
100
AcDbEntity
  8
Title (ANSI)
370
    35
100
AcDbLine
 10
5.000010039370078
 20
7.074984125718456
 30
0.0
 11
7.750010039370075
 21
7.074984125718462
 31
0.0
  0
TEXT
  5
10B
330
F4
100
AcDbEntity
  8
Title (ANSI)
100
AcDbText
 10
10.78001003937008
 20
5.008392454361828
 30
0.0
 40
0.1000000031914298
  1
SHEET 1  OF 1 
  7
Note Text (ANSI)
 11
10.78001003937008
 21
4.97998412571846
 31
0.0
100
AcDbText
 73
     1
  0
TEXT
  5
10C
330
F4
100
AcDbEntity
  8
Title (ANSI)
100
AcDbText
 10
5.030010039370076
 20
7.31998412252703
 30
0.0
 40
0.1000000031914298
  1
DRAWN
  7
Note Text (ANSI)
 11
5.030010039370076
 21
7.419984125718459
 31
0.0
100
AcDbText
 73
     3
  0
TEXT
  5
10D
330
F4
100
AcDbEntity
  8
Title (ANSI)
100
AcDbText
 10
5.030010039370078
 20
6.944984122527027
 30
0.0
 40
0.1000000031914298
  1
CHECKED
  7
Note Text (ANSI)
 11
5.030010039370078
 21
7.044984125718457
 31
0.0
100
AcDbText
 73
     3
  0
TEXT
  5
10E
330
F4
100
AcDbEntity
  8
Title (ANSI)
100
AcDbText
 10
5.030010039370078
 20
6.569984122527026
 30
0.0
 40
0.1000000031914298
  1
QA
  7
Note Text (ANSI)
 11
5.030010039370078
 21
6.669984125718456
 31
0.0
100
AcDbText
 73
     3
  0
TEXT
  5
10F
330
F4
100
AcDbEntity
  8
Title (ANSI)
100
AcDbText
 10
5.030010039370078
 20
6.194984122527027
 30
0.0
 40
0.1000000031914298
  1
MFG
  7
Note Text (ANSI)
 11
5.030010039370078
 21
6.294984125718457
 31
0.0
100
AcDbText
 73
     3
  0
TEXT
  5
110
330
F4
100
AcDbEntity
  8
Title (ANSI)
100
AcDbText
 10
5.030010039370078
 20
5.819984122527027
 30
0.0
 40
0.1000000031914298
  1
APPROVED
  7
Note Text (ANSI)
 11
5.030010039370078
 21
5.919984125718457
 31
0.0
100
AcDbText
 73
     3
  0
TEXT
  5
111
330
F4
100
AcDbEntity
  8
Title (ANSI)
100
AcDbText
 10
9.280010039370077
 20
5.569985628432529
 30
0.0
 40
0.1000000031914298
  1
DWG NO
  7
Note Text (ANSI)
 11
9.280010039370077
 21
5.669985631623958
 31
0.0
100
AcDbText
 73
     3
  0
TEXT
  5
112
330
F4
100
AcDbEntity
  8
Title (ANSI)
100
AcDbText
 10
7.780010039370075
 20
6.699987897330176
 30
0.0
 40
0.1000000031914298
  1
TITLE
  7
Note Text (ANSI)
 11
7.780010039370075
 21
6.799987900521606
 31
0.0
100
AcDbText
 73
     3
  0
TEXT
  5
113
330
F4
100
AcDbEntity
  8
Title (ANSI)
100
AcDbText
 10
7.859009363278468
 20
5.56998562843254
 30
0.0
 40
0.1000000031914298
  1
SIZE
  7
Note Text (ANSI)
 72
     1
 11
8.000010039370078
 21
5.66998563162397
 31
0.0
100
AcDbText
 73
     3
  0
TEXT
  5
114
330
F4
100
AcDbEntity
  8
Title (ANSI)
100
AcDbText
 10
7.780010039370078
 20
5.069984122527032
 30
0.0
 40
0.1000000031914298
  1
SCALE
  7
Note Text (ANSI)
 11
7.780010039370078
 21
5.169984125718462
 31
0.0
100
AcDbText
 73
     3
  0
TEXT
  5
115
330
F4
100
AcDbEntity
  8
Title (ANSI)
100
AcDbText
 10
12.37744455527044
 20
5.569985628432542
 30
0.0
 40
0.1000000031914298
  1
REV
  7
Note Text (ANSI)
 72
     1
 11
12.50001003937008
 21
5.669985631623972
 31
0.0
100
AcDbText
 73
     3
  0
ATTDEF
  5
116
330
F4
100
AcDbEntity
  8
Title (ANSI)
100
AcDbText
 10
5.030010039370078
 20
5.640494534856063
 30
0.0
 40
0.1249999981226883
  1

  7
Note Text (ANSI)
 11
5.030010039370078
 21
5.604984125718456
 31
0.0
100
AcDbAttributeDefinition
  3
ENG APPROVED BY
  2
ENG_APPROVED_BY
 70
     0
 74
     1
  0
ATTDEF
  5
117
330
F4
100
AcDbEntity
  8
Title (ANSI)
100
AcDbText
 10
5.030010039370078
 20
6.015494534856063
 30
0.0
 40
0.1249999981226883
  1

  7
Note Text (ANSI)
 11
5.030010039370078
 21
5.979984125718456
 31
0.0
100
AcDbAttributeDefinition
  3
MFG APPROVED BY
  2
MFG_APPROVED_BY
 70
     0
 74
     1
  0
ATTDEF
  5
118
330
F4
100
AcDbEntity
  8
Title (ANSI)
100
AcDbText
 10
5.030010039370078
 20
7.140494534856063
 30
0.0
 40
0.1249999981226883
  1
Robin Gudgel
  7
Note Text (ANSI)
 11
5.030010039370078
 21
7.104984125718456
 31
0.0
100
AcDbAttributeDefinition
  3
AUTHOR
  2
AUTHOR
 70
     0
 74
     1
  0
ATTDEF
  5
119
330
F4
100
AcDbEntity
  8
Title (ANSI)
100
AcDbText
 10
5.030010039370078
 20
6.765494534856063
 30
0.0
 40
0.1249999981226883
  1

  7
Note Text (ANSI)
 11
5.030010039370078
 21
6.729984125718456
 31
0.0
100
AcDbAttributeDefinition
  3
CHECKED BY
  2
CHECKED_BY
 70
     0
 74
     1
  0
ATTDEF
  5
11A
330
F4
100
AcDbEntity
  8
Title (ANSI)
100
AcDbText
 10
6.780013553149605
 20
7.140494534856066
 30
0.0
 40
0.1249999981226883
  1
8/1/2011
  7
Note Text (ANSI)
 11
6.780013553149605
 21
7.104984125718459
 31
0.0
100
AcDbAttributeDefinition
  3
CREATION DATE
  2
CREATION_DATE
 70
     0
 74
     1
  0
ATTDEF
  5
11B
330
F4
100
AcDbEntity
  8
Title (ANSI)
100
AcDbText
 10
6.780013553149605
 20
6.765494534856066
 30
0.0
 40
0.1249999981226883
  1

  7
Note Text (ANSI)
 11
6.780013553149605
 21
6.729984125718459
 31
0.0
100
AcDbAttributeDefinition
  3
CHECKED DATE
  2
CHECKED_DATE
 70
     0
 74
     1
  0
ATTDEF
  5
11C
330
F4
100
AcDbEntity
  8
Title (ANSI)
100
AcDbText
 10
6.780013553149605
 20
6.015494534856067
 30
0.0
 40
0.1249999981226883
  1

  7
Note Text (ANSI)
 11
6.780013553149605
 21
5.97998412571846
 31
0.0
100
AcDbAttributeDefinition
  3
MFG APPROVED DATE
  2
MFG_APPROVED_DATE
 70
     0
 74
     1
  0
ATTDEF
  5
11D
330
F4
100
AcDbEntity
  8
Title (ANSI)
100
AcDbText
 10
6.780013553149605
 20
5.640494534856067
 30
0.0
 40
0.1249999981226883
  1

  7
Note Text (ANSI)
 11
6.780013553149605
 21
5.60498412571846
 31
0.0
100
AcDbAttributeDefinition
  3
ENG APPROVAL DATE
  2
ENG_APPROVAL_DATE
 70
     0
 74
     1
  0
ATTDEF
  5
11E
330
F4
100
AcDbEntity
  8
Title (ANSI)
100
AcDbText
 10
9.280010039370079
 20
5.281119114609963
 30
0.0
 40
0.1799999963580154
  1
MNEDC250 DIMS
  7
Note Text (ANSI)
 11
9.280010039370079
 21
5.229984125718465
 31
0.0
100
AcDbAttributeDefinition
  3
PART NUMBER
  2
PART_NUMBER
 70
     0
 74
     1
  0
ATTDEF
  5
11F
330
F4
100
AcDbEntity
  8
Title (ANSI)
100
AcDbText
 10
7.780010039370075
 20
6.132745946448078
 30
0.0
 40
0.1799999963580154
  1
                MNEDC175 & 250
  7
Note Text (ANSI)
 11
7.780010039370075
 21
6.222745944627085
 31
0.0
100
AcDbAttributeDefinition
  3
TITLE
  2
TITLE
 70
     0
 74
     2
  0
ATTDEF
  5
120
330
F4
100
AcDbEntity
  8
Title (ANSI)
100
AcDbText
 10
7.925664842754778
 20
5.284984880492206
 30
0.0
 40
0.1799999963580154
  1
C
  7
Note Text (ANSI)
 72
     1
 11
8.000010039370076
 21
5.374984878671214
 31
0.0
100
AcDbAttributeDefinition
  3
Sheet Size
  2
Sheet_Size
 70
     0
 74
     2
  0
ATTDEF
  5
121
330
F4
100
AcDbEntity
  8
Title (ANSI)
100
AcDbText
 10
9.620896549825801
 20
7.077486014058688
 30
0.0
 40
0.1249999981226883
  1
MIDNITE SOLAR
  7
Note Text (ANSI)
 72
     1
 11
10.25001003937007
 21
7.139986013120032
 31
0.0
100
AcDbAttributeDefinition
  3
COMPANY
  2
COMPANY
 70
     0
 74
     2
  0
ATTDEF
  5
122
330
F4
100
AcDbEntity
  8
Title (ANSI)
100
AcDbText
 10
12.3168753879902
 20
5.312484879609879
 30
0.0
 40
0.1249999981226883
  1
NEW
  7
Note Text (ANSI)
 72
     1
 11
12.50001003937008
 21
5.374984878671223
 31
0.0
100
AcDbAttributeDefinition
  3
REVISION NUMBER
  2
REVISION_NUMBER
 70
     0
 74
     2
  0
ENDBLK
  5
F6
330
F4
100
AcDbEntity
  8
0
100
AcDbBlockEnd
  0
BLOCK
  5
480
330
475
100
AcDbEntity
  8
0
100
AcDbBlockBegin
  2
*D6
 70
     1
 10
0.0
 20
0.0
 30
0.0
  3
*D6
  1

  0
LINE
  5
54A
330
475
100
AcDbEntity
  8
Dimension (ANSI)
100
AcDbLine
 10
1.906964658044267
 20
4.475743759149056
 30
0.0
 11
0.6057714877801845
 21
4.475743759149056
 31
0.0
  0
LINE
  5
54B
330
475
100
AcDbEntity
  8
Dimension (ANSI)
100
AcDbLine
 10
1.906964658044267
 20
1.674562656786851
 30
0.0
 11
0.6057714877801839
 21
1.674562656786851
 31
0.0
  0
LINE
  5
54C
330
475
100
AcDbEntity
  8
Dimension (ANSI)
100
AcDbLine
 10
0.6549840862053813
 20
4.436993682526581
 30
0.0
 11
0.6549840862053811
 21
3.135939563834079
 31
0.0
  0
LINE
  5
54D
330
475
100
AcDbEntity
  8
Dimension (ANSI)
100
AcDbLine
 10
0.6549840862053806
 20
1.713312733409326
 30
0.0
 11
0.6549840862053811
 21
3.014366852101826
 31
0.0
  0
MTEXT
  5
54E
330
475
100
AcDbEntity
  8
Dimension (ANSI)
100
AcDbMText
 10
0.4999574543438391
 20
3.12353953903403
 30
0.0
 40
0.0944881927310013
 41
0.0
 71
     1
 72
     1
  1
\A1;7.115
  7
Note Text (ANSI)
 73
     1
 44
1.0
  0
SOLID
  5
54F
330
475
100
AcDbEntity
  8
Dimension (ANSI)
100
AcDbTrace
 10
0.6485257401016355
 20
4.436993682526581
 30
0.0
 11
0.6614424323091272
 21
4.436993682526581
 31
0.0
 12
0.6549840862053813
 22
4.475743759149056
 32
0.0
 13
0.6549840862053813
 23
4.475743759149056
 33
0.0
  0
SOLID
  5
550
330
475
100
AcDbEntity
  8
Dimension (ANSI)
100
AcDbTrace
 10
0.6485257401016349
 20
1.713312733409326
 30
0.0
 11
0.6614424323091265
 21
1.713312733409326
 31
0.0
 12
0.6549840862053806
 22
1.674562656786851
 32
0.0
 13
0.6549840862053806
 23
1.674562656786851
 33
0.0
  0
POINT
  5
551
330
475
100
AcDbEntity
  8
Defpoints
 62
     0
100
AcDbPoint
 10
1.931570957256866
 20
4.475743759149056
 30
0.0
  0
POINT
  5
552
330
475
100
AcDbEntity
  8
Defpoints
 62
     0
100
AcDbPoint
 10
1.931570957256866
 20
1.674562656786851
 30
0.0
  0
POINT
  5
553
330
475
100
AcDbEntity
  8
Defpoints
 62
     0
100
AcDbPoint
 10
0.6549840862053806
 20
1.674562656786851
 30
0.0
  0
ENDBLK
  5
481
330
475
100
AcDbEntity
  8
0
100
AcDbBlockEnd
  0
BLOCK
  5
560
330
555
100
AcDbEntity
  8
0
100
AcDbBlockBegin
  2
*D7
 70
     1
 10
0.0
 20
0.0
 30
0.0
  3
*D7
  1

  0
LINE
  5
616
330
555
100
AcDbEntity
  8
Dimension (ANSI)
100
AcDbLine
 10
1.414838673792299
 20
4.247032914699412
 30
0.0
 11
0.9383370445850747
 21
4.247032914699412
 31
0.0
  0
LINE
  5
617
330
555
100
AcDbEntity
  8
Dimension (ANSI)
100
AcDbLine
 10
1.414838673792299
 20
1.904513229660041
 30
0.0
 11
0.9383370445850742
 21
1.904513229660041
 31
0.0
  0
LINE
  5
618
330
555
100
AcDbEntity
  8
Dimension (ANSI)
100
AcDbLine
 10
0.9875496430102716
 20
4.208282838076937
 30
0.0
 11
0.9875496430102714
 21
3.451794893925679
 31
0.0
  0
LINE
  5
619
330
555
100
AcDbEntity
  8
Dimension (ANSI)
100
AcDbLine
 10
0.987549643010271
 20
1.943263306282516
 30
0.0
 11
0.9875496430102714
 21
3.328635745109293
 31
0.0
  0
SOLID
  5
61A
330
555
100
AcDbEntity
  8
Dimension (ANSI)
100
AcDbTrace
 10
0.9810912969065258
 20
4.208282838076937
 30
0.0
 11
0.9940079891140173
 21
4.208282838076937
 31
0.0
 12
0.9875496430102716
 22
4.247032914699412
 32
0.0
 13
0.9875496430102716
 23
4.247032914699412
 33
0.0
  0
SOLID
  5
61B
330
555
100
AcDbEntity
  8
Dimension (ANSI)
100
AcDbTrace
 10
0.9810912969065253
 20
1.943263306282516
 30
0.0
 11
0.9940079891140168
 21
1.943263306282516
 31
0.0
 12
0.987549643010271
 22
1.904513229660041
 32
0.0
 13
0.987549643010271
 23
1.904513229660041
 33
0.0
  0
MTEXT
  5
61C
330
555
100
AcDbEntity
  8
Dimension (ANSI)
100
AcDbMText
 10
0.8325547398904117
 20
3.439394869125629
 30
0.0
 40
0.0944881927310013
 41
0.0
 71
     1
 72
     1
  1
\A1;5.950
  7
Note Text (ANSI)
 73
     1
 44
1.0
  0
POINT
  5
61D
330
555
100
AcDbEntity
  8
Defpoints
 62
     0
100
AcDbPoint
 10
1.439444973004897
 20
4.247032914699412
 30
0.0
  0
POINT
  5
61E
330
555
100
AcDbEntity
  8
Defpoints
 62
     0
100
AcDbPoint
 10
1.439444973004897
 20
1.904513229660041
 30
0.0
  0
POINT
  5
61F
330
555
100
AcDbEntity
  8
Defpoints
 62
     0
100
AcDbPoint
 10
0.987549643010271
 20
1.904513229660041
 30
0.0
  0
ENDBLK
  5
561
330
555
100
AcDbEntity
  8
0
100
AcDbBlockEnd
  0
BLOCK
  5
62C
330
621
100
AcDbEntity
  8
0
100
AcDbBlockBegin
  2
*D8
 70
     1
 10
0.0
 20
0.0
 30
0.0
  3
*D8
  1

  0
LINE
  5
6E2
330
621
100
AcDbEntity
  8
Dimension (ANSI)
100
AcDbLine
 10
1.931570957256866
 20
4.500350058361654
 30
0.0
 11
1.931570957256866
 21
5.05195741157636
 31
0.0
  0
LINE
  5
6E3
330
621
100
AcDbEntity
  8
Dimension (ANSI)
100
AcDbLine
 10
1.754405602926157
 20
4.419277010737603
 30
0.0
 11
1.754405602926157
 21
5.05195741157636
 31
0.0
  0
LINE
  5
6E4
330
621
100
AcDbEntity
  8
Dimension (ANSI)
100
AcDbLine
 10
1.793155679548632
 20
5.002744813151163
 30
0.0
 11
1.892820880634391
 21
5.002744813151163
 31
0.0
  0
LINE
  5
6E5
330
621
100
AcDbEntity
  8
Dimension (ANSI)
100
AcDbLine
 10
1.931570957256866
 20
5.002744813151163
 30
0.0
 11
2.01426284263863
 21
5.002744813151163
 31
0.0
  0
SOLID
  5
6E6
330
621
100
AcDbEntity
  8
Dimension (ANSI)
100
AcDbTrace
 10
1.793155679548632
 20
5.009203159254909
 30
0.0
 11
1.793155679548632
 21
4.996286467047418
 31
0.0
 12
1.754405602926157
 22
5.002744813151163
 32
0.0
 13
1.754405602926157
 23
5.002744813151163
 33
0.0
  0
SOLID
  5
6E7
330
621
100
AcDbEntity
  8
Dimension (ANSI)
100
AcDbTrace
 10
1.892820880634391
 20
5.009203159254909
 30
0.0
 11
1.892820880634391
 21
4.996286467047418
 31
0.0
 12
1.931570957256866
 22
5.002744813151163
 32
0.0
 13
1.931570957256866
 23
5.002744813151163
 33
0.0
  0
MTEXT
  5
6E8
330
621
100
AcDbEntity
  8
Dimension (ANSI)
100
AcDbMText
 10
2.02666286743868
 20
5.051924362759306
 30
0.0
 40
0.0944881927310013
 41
0.0
 71
     1
 72
     1
  1
\A1;0.450
  7
Note Text (ANSI)
 73
     1
 44
1.0
  0
POINT
  5
6E9
330
621
100
AcDbEntity
  8
Defpoints
 62
     0
100
AcDbPoint
 10
1.931570957256866
 20
4.475743759149056
 30
0.0
  0
POINT
  5
6EA
330
621
100
AcDbEntity
  8
Defpoints
 62
     0
100
AcDbPoint
 10
1.754405602926157
 20
4.394670711525005
 30
0.0
  0
POINT
  5
6EB
330
621
100
AcDbEntity
  8
Defpoints
 62
     0
100
AcDbPoint
 10
1.754405602926157
 20
5.002744813151163
 30
0.0
  0
ENDBLK
  5
62D
330
621
100
AcDbEntity
  8
0
100
AcDbBlockEnd
  0
BLOCK
  5
6F8
330
6ED
100
AcDbEntity
  8
0
100
AcDbBlockBegin
  2
*D9
 70
     1
 10
0.0
 20
0.0
 30
0.0
  3
*D9
  1

  0
LINE
  5
7AE
330
6ED
100
AcDbEntity
  8
Dimension (ANSI)
100
AcDbLine
 10
1.931570957256866
 20
4.500350058361654
 30
0.0
 11
1.931570957256866
 21
4.865957039575616
 31
0.0
  0
LINE
  5
7AF
330
6ED
100
AcDbEntity
  8
Dimension (ANSI)
100
AcDbLine
 10
3.092988280091511
 20
4.224759507180552
 30
0.0
 11
3.092988280091511
 21
4.865957039575616
 31
0.0
  0
LINE
  5
7B0
330
6ED
100
AcDbEntity
  8
Dimension (ANSI)
100
AcDbLine
 10
1.970321033879341
 20
4.81674444115042
 30
0.0
 11
2.376485693877997
 21
4.81674444115042
 31
0.0
  0
LINE
  5
7B1
330
6ED
100
AcDbEntity
  8
Dimension (ANSI)
100
AcDbLine
 10
3.054238203469036
 20
4.81674444115042
 30
0.0
 11
2.712227411968294
 21
4.81674444115042
 31
0.0
  0
SOLID
  5
7B2
330
6ED
100
AcDbEntity
  8
Dimension (ANSI)
100
AcDbTrace
 10
1.970321033879341
 20
4.823202787254165
 30
0.0
 11
1.970321033879341
 21
4.810286095046674
 31
0.0
 12
1.931570957256866
 22
4.81674444115042
 32
0.0
 13
1.931570957256866
 23
4.81674444115042
 33
0.0
  0
SOLID
  5
7B3
330
6ED
100
AcDbEntity
  8
Dimension (ANSI)
100
AcDbTrace
 10
3.054238203469036
 20
4.823202787254165
 30
0.0
 11
3.054238203469036
 21
4.810286095046674
 31
0.0
 12
3.092988280091511
 22
4.81674444115042
 32
0.0
 13
3.092988280091511
 23
4.81674444115042
 33
0.0
  0
MTEXT
  5
7B4
330
6ED
100
AcDbEntity
  8
Dimension (ANSI)
100
AcDbMText
 10
2.388885718678046
 20
4.865955719500245
 30
0.0
 40
0.0944881927310013
 41
0.0
 71
     1
 72
     1
  1
\A1;2.950
  7
Note Text (ANSI)
 73
     1
 44
1.0
  0
POINT
  5
7B5
330
6ED
100
AcDbEntity
  8
Defpoints
 62
     0
100
AcDbPoint
 10
1.931570957256866
 20
4.475743759149056
 30
0.0
  0
POINT
  5
7B6
330
6ED
100
AcDbEntity
  8
Defpoints
 62
     0
100
AcDbPoint
 10
3.092988280091511
 20
4.200153207967953
 30
0.0
  0
POINT
  5
7B7
330
6ED
100
AcDbEntity
  8
Defpoints
 62
     0
100
AcDbPoint
 10
3.092988280091511
 20
4.81674444115042
 30
0.0
  0
ENDBLK
  5
6F9
330
6ED
100
AcDbEntity
  8
0
100
AcDbBlockEnd
  0
BLOCK
  5
7C4
330
7B9
100
AcDbEntity
  8
0
100
AcDbBlockBegin
  2
*D10
 70
     1
 10
0.0
 20
0.0
 30
0.0
  3
*D10
  1

  0
LINE
  5
87A
330
7B9
100
AcDbEntity
  8
Dimension (ANSI)
100
AcDbLine
 10
3.173696941508834
 20
3.368460294582127
 30
0.0
 11
3.173696941508834
 21
4.739647235851721
 31
0.0
  0
LINE
  5
87B
330
7B9
100
AcDbEntity
  8
Dimension (ANSI)
100
AcDbLine
 10
3.092988280091511
 20
4.224759507180552
 30
0.0
 11
3.092988280091511
 21
4.739647235851721
 31
0.0
  0
LINE
  5
87C
330
7B9
100
AcDbEntity
  8
Dimension (ANSI)
100
AcDbLine
 10
3.054238203469036
 20
4.690434637426524
 30
0.0
 11
3.015488126846562
 21
4.690434637426524
 31
0.0
  0
LINE
  5
87D
330
7B9
100
AcDbEntity
  8
Dimension (ANSI)
100
AcDbLine
 10
3.212447018131309
 20
4.690434637426524
 30
0.0
 11
3.292390446336901
 21
4.690434637426524
 31
0.0
  0
SOLID
  5
87E
330
7B9
100
AcDbEntity
  8
Dimension (ANSI)
100
AcDbTrace
 10
3.054238203469036
 20
4.69689298353027
 30
0.0
 11
3.054238203469036
 21
4.683976291322779
 31
0.0
 12
3.092988280091511
 22
4.690434637426524
 32
0.0
 13
3.092988280091511
 23
4.690434637426524
 33
0.0
  0
SOLID
  5
87F
330
7B9
100
AcDbEntity
  8
Dimension (ANSI)
100
AcDbTrace
 10
3.212447018131309
 20
4.69689298353027
 30
0.0
 11
3.212447018131309
 21
4.683976291322779
 31
0.0
 12
3.173696941508834
 22
4.690434637426524
 32
0.0
 13
3.173696941508834
 23
4.690434637426524
 33
0.0
  0
MTEXT
  5
880
330
7B9
100
AcDbEntity
  8
Dimension (ANSI)
100
AcDbMText
 10
3.30479047113695
 20
4.739645915776351
 30
0.0
 40
0.0944881927310013
 41
0.0
 71
     1
 72
     1
  1
\A1;0.205
  7
Note Text (ANSI)
 73
     1
 44
1.0
  0
POINT
  5
881
330
7B9
100
AcDbEntity
  8
Defpoints
 62
     0
100
AcDbPoint
 10
3.173696941508834
 20
3.343853995369528
 30
0.0
  0
POINT
  5
882
330
7B9
100
AcDbEntity
  8
Defpoints
 62
     0
100
AcDbPoint
 10
3.092988280091511
 20
4.200153207967953
 30
0.0
  0
POINT
  5
883
330
7B9
100
AcDbEntity
  8
Defpoints
 62
     0
100
AcDbPoint
 10
3.092988280091511
 20
4.690434637426524
 30
0.0
  0
ENDBLK
  5
7C5
330
7B9
100
AcDbEntity
  8
0
100
AcDbBlockEnd
  0
BLOCK
  5
890
330
885
100
AcDbEntity
  8
0
100
AcDbBlockBegin
  2
*D11
 70
     1
 10
0.0
 20
0.0
 30
0.0
  3
*D11
  1

  0
LINE
  5
946
330
885
100
AcDbEntity
  8
Dimension (ANSI)
100
AcDbLine
 10
3.595724476996743
 20
3.173517481100175
 30
0.0
 11
3.595724476996743
 21
4.560045623061443
 31
0.0
  0
LINE
  5
947
330
885
100
AcDbEntity
  8
Dimension (ANSI)
100
AcDbLine
 10
3.092988280091511
 20
4.224759507180552
 30
0.0
 11
3.092988280091511
 21
4.560045623061443
 31
0.0
  0
LINE
  5
948
330
885
100
AcDbEntity
  8
Dimension (ANSI)
100
AcDbLine
 10
3.556974400374268
 20
4.510833024636245
 30
0.0
 11
3.508800533487548
 21
4.510833024636245
 31
0.0
  0
LINE
  5
949
330
885
100
AcDbEntity
  8
Dimension (ANSI)
100
AcDbLine
 10
3.131738356713986
 20
4.510833024636245
 30
0.0
 11
3.179912223600707
 21
4.510833024636245
 31
0.0
  0
SOLID
  5
94A
330
885
100
AcDbEntity
  8
Dimension (ANSI)
100
AcDbTrace
 10
3.556974400374268
 20
4.517291370739991
 30
0.0
 11
3.556974400374268
 21
4.5043746785325
 31
0.0
 12
3.595724476996743
 22
4.510833024636245
 32
0.0
 13
3.595724476996743
 23
4.510833024636245
 33
0.0
  0
SOLID
  5
94B
330
885
100
AcDbEntity
  8
Dimension (ANSI)
100
AcDbTrace
 10
3.131738356713986
 20
4.517291370739991
 30
0.0
 11
3.131738356713986
 21
4.5043746785325
 31
0.0
 12
3.092988280091511
 22
4.510833024636245
 32
0.0
 13
3.092988280091511
 23
4.510833024636245
 33
0.0
  0
MTEXT
  5
94C
330
885
100
AcDbEntity
  8
Dimension (ANSI)
100
AcDbMText
 10
3.192312248400757
 20
4.559060711993909
 30
0.0
 40
0.0944881927310013
 41
0.0
 71
     1
 72
     1
  1
\A1;1.277
  7
Note Text (ANSI)
 73
     1
 44
1.0
  0
POINT
  5
94D
330
885
100
AcDbEntity
  8
Defpoints
 62
     0
100
AcDbPoint
 10
3.595724476996743
 20
3.148911181887577
 30
0.0
  0
POINT
  5
94E
330
885
100
AcDbEntity
  8
Defpoints
 62
     0
100
AcDbPoint
 10
3.092988280091511
 20
4.200153207967953
 30
0.0
  0
POINT
  5
94F
330
885
100
AcDbEntity
  8
Defpoints
 62
     0
100
AcDbPoint
 10
3.092988280091511
 20
4.510833024636245
 30
0.0
  0
ENDBLK
  5
891
330
885
100
AcDbEntity
  8
0
100
AcDbBlockEnd
  0
BLOCK
  5
95C
330
951
100
AcDbEntity
  8
0
100
AcDbBlockBegin
  2
*D12
 70
     1
 10
0.0
 20
0.0
 30
0.0
  3
*D12
  1

  0
LINE
  5
A26
330
951
100
AcDbEntity
  8
Dimension (ANSI)
100
AcDbLine
 10
3.198303240721433
 20
3.343853995369528
 30
0.0
 11
3.935910965936883
 21
3.343853995369528
 31
0.0
  0
LINE
  5
A27
330
951
100
AcDbEntity
  8
Dimension (ANSI)
100
AcDbLine
 10
3.198303240721433
 20
2.433617774897087
 30
0.0
 11
3.935910965936883
 21
2.433617774897087
 31
0.0
  0
LINE
  5
A28
330
951
100
AcDbEntity
  8
Dimension (ANSI)
100
AcDbLine
 10
3.886698367511686
 20
3.305103918747053
 30
0.0
 11
3.886698367511686
 21
2.950347188283183
 31
0.0
  0
LINE
  5
A29
330
951
100
AcDbEntity
  8
Dimension (ANSI)
100
AcDbLine
 10
3.886698367511686
 20
2.472367851519562
 30
0.0
 11
3.886698367511686
 21
2.827124581983431
 31
0.0
  0
MTEXT
  5
A2A
330
951
100
AcDbEntity
  8
Dimension (ANSI)
100
AcDbMText
 10
3.731449634458366
 20
2.937947163483134
 30
0.0
 40
0.0944881927310013
 41
0.0
 71
     1
 72
     1
  1
\A1;2.312
  7
Note Text (ANSI)
 73
     1
 44
1.0
  0
SOLID
  5
A2B
330
951
100
AcDbEntity
  8
Dimension (ANSI)
100
AcDbTrace
 10
3.880240021407941
 20
3.305103918747053
 30
0.0
 11
3.893156713615432
 21
3.305103918747053
 31
0.0
 12
3.886698367511686
 22
3.343853995369528
 32
0.0
 13
3.886698367511686
 23
3.343853995369528
 33
0.0
  0
SOLID
  5
A2C
330
951
100
AcDbEntity
  8
Dimension (ANSI)
100
AcDbTrace
 10
3.880240021407941
 20
2.472367851519562
 30
0.0
 11
3.893156713615432
 21
2.472367851519562
 31
0.0
 12
3.886698367511686
 22
2.433617774897087
 32
0.0
 13
3.886698367511686
 23
2.433617774897087
 33
0.0
  0
POINT
  5
A2D
330
951
100
AcDbEntity
  8
Defpoints
 62
     0
100
AcDbPoint
 10
3.173696941508834
 20
3.343853995369528
 30
0.0
  0
POINT
  5
A2E
330
951
100
AcDbEntity
  8
Defpoints
 62
     0
100
AcDbPoint
 10
3.173696941508834
 20
2.433617774897087
 30
0.0
  0
POINT
  5
A2F
330
951
100
AcDbEntity
  8
Defpoints
 62
     0
100
AcDbPoint
 10
3.886698367511686
 20
2.433617774897087
 30
0.0
  0
ENDBLK
  5
95D
330
951
100
AcDbEntity
  8
0
100
AcDbBlockEnd
  0
BLOCK
  5
A3C
330
A31
100
AcDbEntity
  8
0
100
AcDbBlockBegin
  2
*D13
 70
     1
 10
0.0
 20
0.0
 30
0.0
  3
*D13
  1

  0
LINE
  5
B06
330
A31
100
AcDbEntity
  8
Dimension (ANSI)
100
AcDbLine
 10
4.973516541352043
 20
3.832042971747481
 30
0.0
 11
4.572656789102367
 21
3.832042971747482
 31
0.0
  0
LINE
  5
B07
330
A31
100
AcDbEntity
  8
Dimension (ANSI)
100
AcDbLine
 10
4.973516541352043
 20
2.326137459936457
 30
0.0
 11
4.572656789102367
 21
2.326137459936457
 31
0.0
  0
LINE
  5
B08
330
A31
100
AcDbEntity
  8
Dimension (ANSI)
100
AcDbLine
 10
4.621869387527564
 20
3.793292895125007
 30
0.0
 11
4.621869387527564
 21
3.140891891441941
 31
0.0
  0
LINE
  5
B09
330
A31
100
AcDbEntity
  8
Dimension (ANSI)
100
AcDbLine
 10
4.621869387527564
 20
2.364887536558932
 30
0.0
 11
4.621869387527564
 21
3.017288540241997
 31
0.0
  0
MTEXT
  5
B0A
330
A31
100
AcDbEntity
  8
Dimension (ANSI)
100
AcDbMText
 10
4.466779298182657
 20
3.128491866641891
 30
0.0
 40
0.0944881927310013
 41
0.0
 71
     1
 72
     1
  1
\A1;3.825
  7
Note Text (ANSI)
 73
     1
 44
1.0
  0
SOLID
  5
B0B
330
A31
100
AcDbEntity
  8
Dimension (ANSI)
100
AcDbTrace
 10
4.615411041423818
 20
3.793292895125007
 30
0.0
 11
4.62832773363131
 21
3.793292895125007
 31
0.0
 12
4.621869387527564
 22
3.832042971747482
 32
0.0
 13
4.621869387527564
 23
3.832042971747482
 33
0.0
  0
SOLID
  5
B0C
330
A31
100
AcDbEntity
  8
Dimension (ANSI)
100
AcDbTrace
 10
4.615411041423818
 20
2.364887536558932
 30
0.0
 11
4.62832773363131
 21
2.364887536558932
 31
0.0
 12
4.621869387527564
 22
2.326137459936457
 32
0.0
 13
4.621869387527564
 23
2.326137459936457
 33
0.0
  0
POINT
  5
B0D
330
A31
100
AcDbEntity
  8
Defpoints
 62
     0
100
AcDbPoint
 10
4.998122840564642
 20
3.832042971747481
 30
0.0
  0
POINT
  5
B0E
330
A31
100
AcDbEntity
  8
Defpoints
 62
     0
100
AcDbPoint
 10
4.998122840564642
 20
2.326137459936457
 30
0.0
  0
POINT
  5
B0F
330
A31
100
AcDbEntity
  8
Defpoints
 62
     0
100
AcDbPoint
 10
4.621869387527564
 20
2.326137459936457
 30
0.0
  0
ENDBLK
  5
A3D
330
A31
100
AcDbEntity
  8
0
100
AcDbBlockEnd
  0
BLOCK
  5
B1C
330
B11
100
AcDbEntity
  8
0
100
AcDbBlockBegin
  2
*D14
 70
     1
 10
0.0
 20
0.0
 30
0.0
  3
*D14
  1

  0
LINE
  5
BE6
330
B11
100
AcDbEntity
  8
Dimension (ANSI)
100
AcDbLine
 10
5.318004730328456
 20
3.440310688282914
 30
0.0
 11
5.909191256704503
 21
3.440310688282914
 31
0.0
  0
LINE
  5
BE7
330
B11
100
AcDbEntity
  8
Dimension (ANSI)
100
AcDbLine
 10
5.318004730328451
 20
2.337948483558505
 30
0.0
 11
5.909191256704503
 21
2.337948483558505
 31
0.0
  0
LINE
  5
BE8
330
B11
100
AcDbEntity
  8
Dimension (ANSI)
100
AcDbLine
 10
5.859978658279306
 20
3.401560611660439
 30
0.0
 11
5.859978658279306
 21
2.950931261520681
 31
0.0
  0
LINE
  5
BE9
330
B11
100
AcDbEntity
  8
Dimension (ANSI)
100
AcDbLine
 10
5.859978658279306
 20
2.37669856018098
 30
0.0
 11
5.859978658279306
 21
2.827327910320737
 31
0.0
  0
MTEXT
  5
BEA
330
B11
100
AcDbEntity
  8
Dimension (ANSI)
100
AcDbMText
 10
5.704507824034207
 20
2.938531236720632
 30
0.0
 40
0.0944881927310013
 41
0.0
 71
     1
 72
     1
  1
\A1;2.800
  7
Note Text (ANSI)
 73
     1
 44
1.0
  0
SOLID
  5
BEB
330
B11
100
AcDbEntity
  8
Dimension (ANSI)
100
AcDbTrace
 10
5.853520312175561
 20
3.401560611660439
 30
0.0
 11
5.866437004383052
 21
3.401560611660439
 31
0.0
 12
5.859978658279306
 22
3.440310688282914
 32
0.0
 13
5.859978658279306
 23
3.440310688282914
 33
0.0
  0
SOLID
  5
BEC
330
B11
100
AcDbEntity
  8
Dimension (ANSI)
100
AcDbTrace
 10
5.853520312175561
 20
2.37669856018098
 30
0.0
 11
5.866437004383052
 21
2.37669856018098
 31
0.0
 12
5.859978658279306
 22
2.337948483558505
 32
0.0
 13
5.859978658279306
 23
2.337948483558505
 33
0.0
  0
POINT
  5
BED
330
B11
100
AcDbEntity
  8
Defpoints
 62
     0
100
AcDbPoint
 10
5.293398431115858
 20
3.440310688282914
 30
0.0
  0
POINT
  5
BEE
330
B11
100
AcDbEntity
  8
Defpoints
 62
     0
100
AcDbPoint
 10
5.293398431115852
 20
2.337948483558505
 30
0.0
  0
POINT
  5
BEF
330
B11
100
AcDbEntity
  8
Defpoints
 62
     0
100
AcDbPoint
 10
5.859978658279306
 20
2.337948483558505
 30
0.0
  0
ENDBLK
  5
B1D
330
B11
100
AcDbEntity
  8
0
100
AcDbBlockEnd
  0
BLOCK
  5
BFC
330
BF1
100
AcDbEntity
  8
0
100
AcDbBlockBegin
  2
*D15
 70
     1
 10
0.0
 20
0.0
 30
0.0
  3
*D15
  1

  0
LINE
  5
CB2
330
BF1
100
AcDbEntity
  8
Dimension (ANSI)
100
AcDbLine
 10
4.99812284056454
 20
4.464916989045516
 30
0.0
 11
4.99812284056454
 21
4.923524156259849
 31
0.0
  0
LINE
  5
CB3
330
BF1
100
AcDbEntity
  8
Dimension (ANSI)
100
AcDbLine
 10
5.588674021666902
 20
4.464916989045516
 30
0.0
 11
5.588674021666902
 21
4.923524156259849
 31
0.0
  0
LINE
  5
CB4
330
BF1
100
AcDbEntity
  8
Dimension (ANSI)
100
AcDbLine
 10
5.036872917187015
 20
4.874311557834653
 30
0.0
 11
5.129239834847443
 21
4.874311557834653
 31
0.0
  0
LINE
  5
CB5
330
BF1
100
AcDbEntity
  8
Dimension (ANSI)
100
AcDbLine
 10
5.549923945044427
 20
4.874311557834653
 30
0.0
 11
5.457557027383996
 21
4.874311557834653
 31
0.0
  0
SOLID
  5
CB6
330
BF1
100
AcDbEntity
  8
Dimension (ANSI)
100
AcDbTrace
 10
5.036872917187015
 20
4.880769903938398
 30
0.0
 11
5.036872917187015
 21
4.867853211730907
 31
0.0
 12
4.99812284056454
 22
4.874311557834653
 32
0.0
 13
4.99812284056454
 23
4.874311557834653
 33
0.0
  0
SOLID
  5
CB7
330
BF1
100
AcDbEntity
  8
Dimension (ANSI)
100
AcDbTrace
 10
5.549923945044427
 20
4.880769903938398
 30
0.0
 11
5.549923945044427
 21
4.867853211730907
 31
0.0
 12
5.588674021666902
 22
4.874311557834653
 32
0.0
 13
5.588674021666902
 23
4.874311557834653
 33
0.0
  0
MTEXT
  5
CB8
330
BF1
100
AcDbEntity
  8
Dimension (ANSI)
100
AcDbMText
 10
5.141639859647493
 20
4.923491107442797
 30
0.0
 40
0.0944881927310013
 41
0.0
 71
     1
 72
     1
  1
\A1;1.500
  7
Note Text (ANSI)
 73
     1
 44
1.0
  0
POINT
  5
CB9
330
BF1
100
AcDbEntity
  8
Defpoints
 62
     0
100
AcDbPoint
 10
4.99812284056454
 20
4.440310689832918
 30
0.0
  0
POINT
  5
CBA
330
BF1
100
AcDbEntity
  8
Defpoints
 62
     0
100
AcDbPoint
 10
5.588674021666902
 20
4.440310689832918
 30
0.0
  0
POINT
  5
CBB
330
BF1
100
AcDbEntity
  8
Defpoints
 62
     0
100
AcDbPoint
 10
5.588674021666902
 20
4.874311557834653
 30
0.0
  0
ENDBLK
  5
BFD
330
BF1
100
AcDbEntity
  8
0
100
AcDbBlockEnd
  0
BLOCK
  5
CC9
330
CBE
100
AcDbEntity
  8
0
100
AcDbBlockBegin
  2
*D16
 70
     1
 10
0.0
 20
0.0
 30
0.0
  3
*D16
  1

  0
LINE
  5
CBF
330
CBE
100
AcDbEntity
  8
Dimension (ANSI)
100
AcDbLine
 10
4.84369023143244
 20
11.3683891482386
 30
0.0
 11
1.538659578961668
 21
11.3683891482386
 31
0.0
  0
LINE
  5
CC0
330
CBE
100
AcDbEntity
  8
Dimension (ANSI)
100
AcDbLine
 10
4.84369023143244
 20
4.253389148238602
 30
0.0
 11
1.538659578961667
 21
4.253389148238603
 31
0.0
  0
LINE
  5
CC1
330
CBE
100
AcDbEntity
  8
Dimension (ANSI)
100
AcDbLine
 10
1.663659578961668
 20
11.26996395361752
 30
0.0
 11
1.663659578961667
 21
7.965286492138563
 31
0.0
  0
LINE
  5
CC2
330
CBE
100
AcDbEntity
  8
Dimension (ANSI)
100
AcDbLine
 10
1.663659578961667
 20
4.351814342859689
 30
0.0
 11
1.663659578961667
 21
7.65649180433864
 31
0.0
  0
MTEXT
  5
CC3
330
CBE
100
AcDbEntity
  8
Dimension (ANSI)
100
AcDbMText
 10
1.269891934033351
 20
7.933790429146437
 30
0.0
 40
0.2400000095367432
 41
0.0
 71
     1
 72
     1
  1
\A1;7.115
  7
Note Text (ANSI)
 73
     1
 44
1.0
  0
SOLID
  5
CC4
330
CBE
100
AcDbEntity
  8
Dimension (ANSI)
100
AcDbTrace
 10
1.647255379858154
 20
11.26996395361752
 30
0.0
 11
1.680063778065183
 21
11.26996395361752
 31
0.0
 12
1.663659578961668
 22
11.3683891482386
 32
0.0
 13
1.663659578961668
 23
11.3683891482386
 33
0.0
  0
SOLID
  5
CC5
330
CBE
100
AcDbEntity
  8
Dimension (ANSI)
100
AcDbTrace
 10
1.647255379858152
 20
4.351814342859689
 30
0.0
 11
1.680063778065181
 21
4.351814342859689
 31
0.0
 12
1.663659578961667
 22
4.253389148238603
 32
0.0
 13
1.663659578961667
 23
4.253389148238603
 33
0.0
  0
POINT
  5
CC6
330
CBE
100
AcDbEntity
  8
Defpoints
 62
     0
100
AcDbPoint
 10
4.90619023143244
 20
11.3683891482386
 30
0.0
  0
POINT
  5
CC7
330
CBE
100
AcDbEntity
  8
Defpoints
 62
     0
100
AcDbPoint
 10
4.90619023143244
 20
4.253389148238602
 30
0.0
  0
POINT
  5
CC8
330
CBE
100
AcDbEntity
  8
Defpoints
 62
     0
100
AcDbPoint
 10
1.663659578961667
 20
4.253389148238603
 30
0.0
  0
ENDBLK
  5
CCA
330
CBE
100
AcDbEntity
  8
0
100
AcDbBlockEnd
  0
BLOCK
  5
CD6
330
CCB
100
AcDbEntity
  8
0
100
AcDbBlockBegin
  2
*D17
 70
     1
 10
0.0
 20
0.0
 30
0.0
  3
*D17
  1

  0
LINE
  5
CCC
330
CCB
100
AcDbEntity
  8
Dimension (ANSI)
100
AcDbLine
 10
3.593690231432441
 20
10.7874636033365
 30
0.0
 11
2.38337609324609
 21
10.7874636033365
 31
0.0
  0
LINE
  5
CCD
330
CCB
100
AcDbEntity
  8
Dimension (ANSI)
100
AcDbLine
 10
3.593690231432441
 20
4.837463603336506
 30
0.0
 11
2.383376093246088
 21
4.837463603336506
 31
0.0
  0
LINE
  5
CCE
330
CCB
100
AcDbEntity
  8
Dimension (ANSI)
100
AcDbLine
 10
2.50837609324609
 20
10.68903840871542
 30
0.0
 11
2.508376093246089
 21
8.767559030571225
 31
0.0
  0
LINE
  5
CCF
330
CCB
100
AcDbEntity
  8
Dimension (ANSI)
100
AcDbLine
 10
2.508376093246088
 20
4.935888797957592
 30
0.0
 11
2.508376093246089
 21
8.454734792577605
 31
0.0
  0
SOLID
  5
CD0
330
CCB
100
AcDbEntity
  8
Dimension (ANSI)
100
AcDbTrace
 10
2.491971894142575
 20
10.68903840871542
 30
0.0
 11
2.524780292349604
 21
10.68903840871542
 31
0.0
 12
2.50837609324609
 22
10.7874636033365
 32
0.0
 13
2.50837609324609
 23
10.7874636033365
 33
0.0
  0
SOLID
  5
CD1
330
CCB
100
AcDbEntity
  8
Dimension (ANSI)
100
AcDbTrace
 10
2.491971894142574
 20
4.935888797957592
 30
0.0
 11
2.524780292349602
 21
4.935888797957592
 31
0.0
 12
2.508376093246088
 22
4.837463603336506
 32
0.0
 13
2.508376093246088
 23
4.837463603336506
 33
0.0
  0
MTEXT
  5
CD2
330
CCB
100
AcDbEntity
  8
Dimension (ANSI)
100
AcDbMText
 10
2.114689039321645
 20
8.736062967579099
 30
0.0
 40
0.2400000095367432
 41
0.0
 71
     1
 72
     1
  1
\A1;5.950
  7
Note Text (ANSI)
 73
     1
 44
1.0
  0
POINT
  5
CD3
330
CCB
100
AcDbEntity
  8
Defpoints
 62
     0
100
AcDbPoint
 10
3.656190231432441
 20
10.7874636033365
 30
0.0
  0
POINT
  5
CD4
330
CCB
100
AcDbEntity
  8
Defpoints
 62
     0
100
AcDbPoint
 10
3.656190231432441
 20
4.837463603336506
 30
0.0
  0
POINT
  5
CD5
330
CCB
100
AcDbEntity
  8
Defpoints
 62
     0
100
AcDbPoint
 10
2.508376093246088
 20
4.837463603336506
 30
0.0
  0
ENDBLK
  5
CD7
330
CCB
100
AcDbEntity
  8
0
100
AcDbBlockEnd
  0
BLOCK
  5
CE3
330
CD8
100
AcDbEntity
  8
0
100
AcDbBlockBegin
  2
*D18
 70
     1
 10
0.0
 20
0.0
 30
0.0
  3
*D18
  1

  0
LINE
  5
CD9
330
CD8
100
AcDbEntity
  8
Dimension (ANSI)
100
AcDbLine
 10
4.90619023143244
 20
11.4308891482386
 30
0.0
 11
4.90619023143244
 21
12.83197182540395
 31
0.0
  0
LINE
  5
CDA
330
CD8
100
AcDbEntity
  8
Dimension (ANSI)
100
AcDbLine
 10
4.45619023143244
 20
11.22496360727351
 30
0.0
 11
4.45619023143244
 21
12.83197182540395
 31
0.0
  0
LINE
  5
CDB
330
CD8
100
AcDbEntity
  8
Dimension (ANSI)
100
AcDbLine
 10
4.554615426053526
 20
12.70697182540395
 30
0.0
 11
4.807765036811354
 21
12.70697182540395
 31
0.0
  0
LINE
  5
CDC
330
CD8
100
AcDbEntity
  8
Dimension (ANSI)
100
AcDbLine
 10
4.90619023143244
 20
12.70697182540395
 30
0.0
 11
5.116227620302122
 21
12.70697182540395
 31
0.0
  0
SOLID
  5
CDD
330
CD8
100
AcDbEntity
  8
Dimension (ANSI)
100
AcDbTrace
 10
4.554615426053526
 20
12.72337602450747
 30
0.0
 11
4.554615426053526
 21
12.69056762630044
 31
0.0
 12
4.45619023143244
 22
12.70697182540395
 32
0.0
 13
4.45619023143244
 23
12.70697182540395
 33
0.0
  0
SOLID
  5
CDE
330
CD8
100
AcDbEntity
  8
Dimension (ANSI)
100
AcDbTrace
 10
4.807765036811354
 20
12.72337602450747
 30
0.0
 11
4.807765036811354
 21
12.69056762630044
 31
0.0
 12
4.90619023143244
 22
12.70697182540395
 32
0.0
 13
4.90619023143244
 23
12.70697182540395
 33
0.0
  0
MTEXT
  5
CDF
330
CD8
100
AcDbEntity
  8
Dimension (ANSI)
100
AcDbMText
 10
5.147723683294249
 20
12.83188788140864
 30
0.0
 40
0.2400000095367432
 41
0.0
 71
     1
 72
     1
  1
\A1;0.450
  7
Note Text (ANSI)
 73
     1
 44
1.0
  0
POINT
  5
CE0
330
CD8
100
AcDbEntity
  8
Defpoints
 62
     0
100
AcDbPoint
 10
4.90619023143244
 20
11.3683891482386
 30
0.0
  0
POINT
  5
CE1
330
CD8
100
AcDbEntity
  8
Defpoints
 62
     0
100
AcDbPoint
 10
4.45619023143244
 20
11.16246360727351
 30
0.0
  0
POINT
  5
CE2
330
CD8
100
AcDbEntity
  8
Defpoints
 62
     0
100
AcDbPoint
 10
4.45619023143244
 20
12.70697182540395
 30
0.0
  0
ENDBLK
  5
CE4
330
CD8
100
AcDbEntity
  8
0
100
AcDbBlockEnd
  0
BLOCK
  5
CF0
330
CE5
100
AcDbEntity
  8
0
100
AcDbBlockBegin
  2
*D19
 70
     1
 10
0.0
 20
0.0
 30
0.0
  3
*D19
  1

  0
LINE
  5
CE6
330
CE5
100
AcDbEntity
  8
Dimension (ANSI)
100
AcDbLine
 10
4.90619023143244
 20
11.4308891482386
 30
0.0
 11
4.90619023143244
 21
12.35953088052206
 31
0.0
  0
LINE
  5
CE7
330
CE5
100
AcDbEntity
  8
Dimension (ANSI)
100
AcDbLine
 10
7.85619023143244
 20
10.7308891482386
 30
0.0
 11
7.85619023143244
 21
12.35953088052206
 31
0.0
  0
LINE
  5
CE8
330
CE5
100
AcDbEntity
  8
Dimension (ANSI)
100
AcDbLine
 10
5.004615426053526
 20
12.23453088052206
 30
0.0
 11
6.036273662450112
 21
12.23453088052206
 31
0.0
  0
LINE
  5
CE9
330
CE5
100
AcDbEntity
  8
Dimension (ANSI)
100
AcDbLine
 10
7.757765036811353
 20
12.23453088052206
 30
0.0
 11
6.889057626399469
 21
12.23453088052206
 31
0.0
  0
SOLID
  5
CEA
330
CE5
100
AcDbEntity
  8
Dimension (ANSI)
100
AcDbTrace
 10
5.004615426053526
 20
12.25093507962558
 30
0.0
 11
5.004615426053526
 21
12.21812668141855
 31
0.0
 12
4.90619023143244
 22
12.23453088052206
 32
0.0
 13
4.90619023143244
 23
12.23453088052206
 33
0.0
  0
SOLID
  5
CEB
330
CE5
100
AcDbEntity
  8
Dimension (ANSI)
100
AcDbTrace
 10
7.757765036811353
 20
12.25093507962558
 30
0.0
 11
7.757765036811353
 21
12.21812668141855
 31
0.0
 12
7.85619023143244
 22
12.23453088052206
 32
0.0
 13
7.85619023143244
 23
12.23453088052206
 33
0.0
  0
MTEXT
  5
CEC
330
CE5
100
AcDbEntity
  8
Dimension (ANSI)
100
AcDbMText
 10
6.067769725442238
 20
12.35952752753062
 30
0.0
 40
0.2400000095367432
 41
0.0
 71
     1
 72
     1
  1
\A1;2.950
  7
Note Text (ANSI)
 73
     1
 44
1.0
  0
POINT
  5
CED
330
CE5
100
AcDbEntity
  8
Defpoints
 62
     0
100
AcDbPoint
 10
4.90619023143244
 20
11.3683891482386
 30
0.0
  0
POINT
  5
CEE
330
CE5
100
AcDbEntity
  8
Defpoints
 62
     0
100
AcDbPoint
 10
7.85619023143244
 20
10.6683891482386
 30
0.0
  0
POINT
  5
CEF
330
CE5
100
AcDbEntity
  8
Defpoints
 62
     0
100
AcDbPoint
 10
7.85619023143244
 20
12.23453088052206
 30
0.0
  0
ENDBLK
  5
CF1
330
CE5
100
AcDbEntity
  8
0
100
AcDbBlockEnd
  0
BLOCK
  5
CFD
330
CF2
100
AcDbEntity
  8
0
100
AcDbBlockBegin
  2
*D20
 70
     1
 10
0.0
 20
0.0
 30
0.0
  3
*D20
  1

  0
LINE
  5
CF3
330
CF2
100
AcDbEntity
  8
Dimension (ANSI)
100
AcDbLine
 10
8.061190231432441
 20
8.555889148238604
 30
0.0
 11
8.061190231432441
 21
12.03870397906337
 31
0.0
  0
LINE
  5
CF4
330
CF2
100
AcDbEntity
  8
Dimension (ANSI)
100
AcDbLine
 10
7.85619023143244
 20
10.7308891482386
 30
0.0
 11
7.85619023143244
 21
12.03870397906337
 31
0.0
  0
LINE
  5
CF5
330
CF2
100
AcDbEntity
  8
Dimension (ANSI)
100
AcDbLine
 10
7.757765036811353
 20
11.91370397906337
 30
0.0
 11
7.659339842190267
 21
11.91370397906337
 31
0.0
  0
LINE
  5
CF6
330
CF2
100
AcDbEntity
  8
Dimension (ANSI)
100
AcDbLine
 10
8.159615426053527
 20
11.91370397906337
 30
0.0
 11
8.36267173369573
 21
11.91370397906337
 31
0.0
  0
SOLID
  5
CF7
330
CF2
100
AcDbEntity
  8
Dimension (ANSI)
100
AcDbTrace
 10
7.757765036811353
 20
11.93010817816689
 30
0.0
 11
7.757765036811353
 21
11.89729977995986
 31
0.0
 12
7.85619023143244
 22
11.91370397906337
 32
0.0
 13
7.85619023143244
 23
11.91370397906337
 33
0.0
  0
SOLID
  5
CF8
330
CF2
100
AcDbEntity
  8
Dimension (ANSI)
100
AcDbTrace
 10
8.159615426053527
 20
11.93010817816689
 30
0.0
 11
8.159615426053527
 21
11.89729977995986
 31
0.0
 12
8.061190231432441
 22
11.91370397906337
 32
0.0
 13
8.061190231432441
 23
11.91370397906337
 33
0.0
  0
MTEXT
  5
CF9
330
CF2
100
AcDbEntity
  8
Dimension (ANSI)
100
AcDbMText
 10
8.394167796687856
 20
12.03870062607193
 30
0.0
 40
0.2400000095367432
 41
0.0
 71
     1
 72
     1
  1
\A1;0.205
  7
Note Text (ANSI)
 73
     1
 44
1.0
  0
POINT
  5
CFA
330
CF2
100
AcDbEntity
  8
Defpoints
 62
     0
100
AcDbPoint
 10
8.061190231432441
 20
8.493389148238604
 30
0.0
  0
POINT
  5
CFB
330
CF2
100
AcDbEntity
  8
Defpoints
 62
     0
100
AcDbPoint
 10
7.85619023143244
 20
10.6683891482386
 30
0.0
  0
POINT
  5
CFC
330
CF2
100
AcDbEntity
  8
Defpoints
 62
     0
100
AcDbPoint
 10
7.85619023143244
 20
11.91370397906337
 30
0.0
  0
ENDBLK
  5
CFE
330
CF2
100
AcDbEntity
  8
0
100
AcDbBlockEnd
  0
BLOCK
  5
D0A
330
CFF
100
AcDbEntity
  8
0
100
AcDbBlockBegin
  2
*D21
 70
     1
 10
0.0
 20
0.0
 30
0.0
  3
*D21
  1

  0
LINE
  5
D00
330
CFF
100
AcDbEntity
  8
Dimension (ANSI)
100
AcDbLine
 10
9.133140171571728
 20
8.060734401994446
 30
0.0
 11
9.133140171571728
 21
11.58251588257606
 31
0.0
  0
LINE
  5
D01
330
CFF
100
AcDbEntity
  8
Dimension (ANSI)
100
AcDbLine
 10
7.85619023143244
 20
10.7308891482386
 30
0.0
 11
7.85619023143244
 21
11.58251588257606
 31
0.0
  0
LINE
  5
D02
330
CFF
100
AcDbEntity
  8
Dimension (ANSI)
100
AcDbLine
 10
9.034714976950642
 20
11.45751588257606
 30
0.0
 11
8.912353355058373
 21
11.45751588257606
 31
0.0
  0
LINE
  5
D03
330
CFF
100
AcDbEntity
  8
Dimension (ANSI)
100
AcDbLine
 10
7.954615426053526
 20
11.45751588257606
 30
0.0
 11
8.076977047945797
 21
11.45751588257606
 31
0.0
  0
SOLID
  5
D04
330
CFF
100
AcDbEntity
  8
Dimension (ANSI)
100
AcDbTrace
 10
9.034714976950642
 20
11.47392008167958
 30
0.0
 11
9.034714976950642
 21
11.44111168347255
 31
0.0
 12
9.133140171571728
 22
11.45751588257606
 32
0.0
 13
9.133140171571728
 23
11.45751588257606
 33
0.0
  0
SOLID
  5
D05
330
CFF
100
AcDbEntity
  8
Dimension (ANSI)
100
AcDbTrace
 10
7.954615426053526
 20
11.47392008167958
 30
0.0
 11
7.954615426053526
 21
11.44111168347255
 31
0.0
 12
7.85619023143244
 22
11.45751588257606
 32
0.0
 13
7.85619023143244
 23
11.45751588257606
 33
0.0
  0
MTEXT
  5
D06
330
CFF
100
AcDbEntity
  8
Dimension (ANSI)
100
AcDbMText
 10
8.108473110937923
 20
11.58001420846453
 30
0.0
 40
0.2400000095367432
 41
0.0
 71
     1
 72
     1
  1
\A1;1.277
  7
Note Text (ANSI)
 73
     1
 44
1.0
  0
POINT
  5
D07
330
CFF
100
AcDbEntity
  8
Defpoints
 62
     0
100
AcDbPoint
 10
9.133140171571728
 20
7.998234401994446
 30
0.0
  0
POINT
  5
D08
330
CFF
100
AcDbEntity
  8
Defpoints
 62
     0
100
AcDbPoint
 10
7.85619023143244
 20
10.6683891482386
 30
0.0
  0
POINT
  5
D09
330
CFF
100
AcDbEntity
  8
Defpoints
 62
     0
100
AcDbPoint
 10
7.85619023143244
 20
11.45751588257606
 30
0.0
  0
ENDBLK
  5
D0B
330
CFF
100
AcDbEntity
  8
0
100
AcDbBlockEnd
  0
BLOCK
  5
D17
330
D0C
100
AcDbEntity
  8
0
100
AcDbBlockBegin
  2
*D22
 70
     1
 10
0.0
 20
0.0
 30
0.0
  3
*D22
  1

  0
LINE
  5
D0D
330
D0C
100
AcDbEntity
  8
Dimension (ANSI)
100
AcDbLine
 10
8.123690231432441
 20
8.493389148238604
 30
0.0
 11
9.997213853479685
 21
8.493389148238604
 31
0.0
  0
LINE
  5
D0E
330
D0C
100
AcDbEntity
  8
Dimension (ANSI)
100
AcDbLine
 10
8.123690231432441
 20
6.181389148238603
 30
0.0
 11
9.997213853479685
 21
6.181389148238603
 31
0.0
  0
LINE
  5
D0F
330
D0C
100
AcDbEntity
  8
Dimension (ANSI)
100
AcDbLine
 10
9.872213853479685
 20
8.394963953617518
 30
0.0
 11
9.872213853479685
 21
7.493881858239287
 31
0.0
  0
LINE
  5
D10
330
D0C
100
AcDbEntity
  8
Dimension (ANSI)
100
AcDbLine
 10
9.872213853479685
 20
6.279814342859689
 30
0.0
 11
9.872213853479685
 21
7.180896438237917
 31
0.0
  0
MTEXT
  5
D11
330
D0C
100
AcDbEntity
  8
Dimension (ANSI)
100
AcDbMText
 10
9.47788207152425
 20
7.462385795247162
 30
0.0
 40
0.2400000095367432
 41
0.0
 71
     1
 72
     1
  1
\A1;2.312
  7
Note Text (ANSI)
 73
     1
 44
1.0
  0
SOLID
  5
D12
330
D0C
100
AcDbEntity
  8
Dimension (ANSI)
100
AcDbTrace
 10
9.855809654376171
 20
8.394963953617518
 30
0.0
 11
9.888618052583199
 21
8.394963953617518
 31
0.0
 12
9.872213853479685
 22
8.493389148238604
 32
0.0
 13
9.872213853479685
 23
8.493389148238604
 33
0.0
  0
SOLID
  5
D13
330
D0C
100
AcDbEntity
  8
Dimension (ANSI)
100
AcDbTrace
 10
9.855809654376171
 20
6.279814342859689
 30
0.0
 11
9.888618052583199
 21
6.279814342859689
 31
0.0
 12
9.872213853479685
 22
6.181389148238603
 32
0.0
 13
9.872213853479685
 23
6.181389148238603
 33
0.0
  0
POINT
  5
D14
330
D0C
100
AcDbEntity
  8
Defpoints
 62
     0
100
AcDbPoint
 10
8.061190231432441
 20
8.493389148238604
 30
0.0
  0
POINT
  5
D15
330
D0C
100
AcDbEntity
  8
Defpoints
 62
     0
100
AcDbPoint
 10
8.061190231432441
 20
6.181389148238603
 30
0.0
  0
POINT
  5
D16
330
D0C
100
AcDbEntity
  8
Defpoints
 62
     0
100
AcDbPoint
 10
9.872213853479685
 20
6.181389148238603
 30
0.0
  0
ENDBLK
  5
D18
330
D0C
100
AcDbEntity
  8
0
100
AcDbBlockEnd
  0
BLOCK
  5
D24
330
D19
100
AcDbEntity
  8
0
100
AcDbBlockBegin
  2
*D23
 70
     1
 10
0.0
 20
0.0
 30
0.0
  3
*D23
  1

  0
LINE
  5
D1A
330
D19
100
AcDbEntity
  8
Dimension (ANSI)
100
AcDbLine
 10
12.63273201503419
 20
9.733389148238604
 30
0.0
 11
11.61454824432001
 21
9.733389148238606
 31
0.0
  0
LINE
  5
D1B
330
D19
100
AcDbEntity
  8
Dimension (ANSI)
100
AcDbLine
 10
12.63273201503419
 20
5.908389148238603
 30
0.0
 11
11.61454824432001
 21
5.908389148238603
 31
0.0
  0
LINE
  5
D1C
330
D19
100
AcDbEntity
  8
Dimension (ANSI)
100
AcDbLine
 10
11.73954824432001
 20
9.63496395361752
 30
0.0
 11
11.73954824432001
 21
7.97786540426253
 31
0.0
  0
LINE
  5
D1D
330
D19
100
AcDbEntity
  8
Dimension (ANSI)
100
AcDbLine
 10
11.73954824432001
 20
6.006814342859689
 30
0.0
 11
11.73954824432001
 21
7.663912892214673
 31
0.0
  0
MTEXT
  5
D1E
330
D19
100
AcDbEntity
  8
Dimension (ANSI)
100
AcDbMText
 10
11.34561941738395
 20
7.946369341270406
 30
0.0
 40
0.2400000095367432
 41
0.0
 71
     1
 72
     1
  1
\A1;3.825
  7
Note Text (ANSI)
 73
     1
 44
1.0
  0
SOLID
  5
D1F
330
D19
100
AcDbEntity
  8
Dimension (ANSI)
100
AcDbTrace
 10
11.7231440452165
 20
9.63496395361752
 30
0.0
 11
11.75595244342353
 21
9.63496395361752
 31
0.0
 12
11.73954824432001
 22
9.733389148238606
 32
0.0
 13
11.73954824432001
 23
9.733389148238606
 33
0.0
  0
SOLID
  5
D20
330
D19
100
AcDbEntity
  8
Dimension (ANSI)
100
AcDbTrace
 10
11.7231440452165
 20
6.006814342859689
 30
0.0
 11
11.75595244342353
 21
6.006814342859689
 31
0.0
 12
11.73954824432001
 22
5.908389148238603
 32
0.0
 13
11.73954824432001
 23
5.908389148238603
 33
0.0
  0
POINT
  5
D21
330
D19
100
AcDbEntity
  8
Defpoints
 62
     0
100
AcDbPoint
 10
12.69523201503419
 20
9.733389148238604
 30
0.0
  0
POINT
  5
D22
330
D19
100
AcDbEntity
  8
Defpoints
 62
     0
100
AcDbPoint
 10
12.69523201503419
 20
5.908389148238603
 30
0.0
  0
POINT
  5
D23
330
D19
100
AcDbEntity
  8
Defpoints
 62
     0
100
AcDbPoint
 10
11.73954824432001
 20
5.908389148238603
 30
0.0
  0
ENDBLK
  5
D25
330
D19
100
AcDbEntity
  8
0
100
AcDbBlockEnd
  0
BLOCK
  5
D31
330
D26
100
AcDbEntity
  8
0
100
AcDbBlockBegin
  2
*D24
 70
     1
 10
0.0
 20
0.0
 30
0.0
  3
*D24
  1

  0
LINE
  5
D27
330
D26
100
AcDbEntity
  8
Dimension (ANSI)
100
AcDbLine
 10
13.50773201503428
 20
8.738389148238603
 30
0.0
 11
15.00934579202944
 21
8.738389148238603
 31
0.0
  0
LINE
  5
D28
330
D26
100
AcDbEntity
  8
Dimension (ANSI)
100
AcDbLine
 10
13.50773201503426
 20
5.938389148238604
 30
0.0
 11
15.00934579202944
 21
5.938389148238603
 31
0.0
  0
LINE
  5
D29
330
D26
100
AcDbEntity
  8
Dimension (ANSI)
100
AcDbLine
 10
14.88434579202944
 20
8.639963953617517
 30
0.0
 11
14.88434579202944
 21
7.49536540426253
 31
0.0
  0
LINE
  5
D2A
330
D26
100
AcDbEntity
  8
Dimension (ANSI)
100
AcDbLine
 10
14.88434579202944
 20
6.036814342859689
 30
0.0
 11
14.88434579202944
 21
7.181412892214673
 31
0.0
  0
MTEXT
  5
D2B
330
D26
100
AcDbEntity
  8
Dimension (ANSI)
100
AcDbMText
 10
14.48944987304689
 20
7.463869341270407
 30
0.0
 40
0.2400000095367432
 41
0.0
 71
     1
 72
     1
  1
\A1;2.800
  7
Note Text (ANSI)
 73
     1
 44
1.0
  0
SOLID
  5
D2C
330
D26
100
AcDbEntity
  8
Dimension (ANSI)
100
AcDbTrace
 10
14.86794159292593
 20
8.639963953617517
 30
0.0
 11
14.90074999113295
 21
8.639963953617517
 31
0.0
 12
14.88434579202944
 22
8.738389148238603
 32
0.0
 13
14.88434579202944
 23
8.738389148238603
 33
0.0
  0
SOLID
  5
D2D
330
D26
100
AcDbEntity
  8
Dimension (ANSI)
100
AcDbTrace
 10
14.86794159292593
 20
6.036814342859689
 30
0.0
 11
14.90074999113295
 21
6.036814342859689
 31
0.0
 12
14.88434579202944
 22
5.938389148238603
 32
0.0
 13
14.88434579202944
 23
5.938389148238603
 33
0.0
  0
POINT
  5
D2E
330
D26
100
AcDbEntity
  8
Defpoints
 62
     0
100
AcDbPoint
 10
13.44523201503428
 20
8.738389148238603
 30
0.0
  0
POINT
  5
D2F
330
D26
100
AcDbEntity
  8
Defpoints
 62
     0
100
AcDbPoint
 10
13.44523201503426
 20
5.938389148238604
 30
0.0
  0
POINT
  5
D30
330
D26
100
AcDbEntity
  8
Defpoints
 62
     0
100
AcDbPoint
 10
14.88434579202944
 20
5.938389148238603
 30
0.0
  0
ENDBLK
  5
D32
330
D26
100
AcDbEntity
  8
0
100
AcDbBlockEnd
  0
BLOCK
  5
D3E
330
D33
100
AcDbEntity
  8
0
100
AcDbBlockBegin
  2
*D25
 70
     1
 10
0.0
 20
0.0
 30
0.0
  3
*D25
  1

  0
LINE
  5
D34
330
D33
100
AcDbEntity
  8
Dimension (ANSI)
100
AcDbLine
 10
12.69523201503393
 20
11.34088915217561
 30
0.0
 11
12.69523201503393
 21
12.50575135690002
 31
0.0
  0
LINE
  5
D35
330
D33
100
AcDbEntity
  8
Dimension (ANSI)
100
AcDbLine
 10
14.19523201503393
 20
11.34088915217561
 30
0.0
 11
14.19523201503393
 21
12.50575135690002
 31
0.0
  0
LINE
  5
D36
330
D33
100
AcDbEntity
  8
Dimension (ANSI)
100
AcDbLine
 10
12.79365720965502
 20
12.38075135690002
 30
0.0
 11
13.02826918051251
 21
12.38075135690002
 31
0.0
  0
LINE
  5
D37
330
D33
100
AcDbEntity
  8
Dimension (ANSI)
100
AcDbLine
 10
14.09680682041284
 20
12.38075135690002
 30
0.0
 11
13.86219484955535
 21
12.38075135690002
 31
0.0
  0
SOLID
  5
D38
330
D33
100
AcDbEntity
  8
Dimension (ANSI)
100
AcDbTrace
 10
12.79365720965502
 20
12.39715555600353
 30
0.0
 11
12.79365720965502
 21
12.3643471577965
 31
0.0
 12
12.69523201503393
 22
12.38075135690002
 32
0.0
 13
12.69523201503393
 23
12.38075135690002
 33
0.0
  0
SOLID
  5
D39
330
D33
100
AcDbEntity
  8
Dimension (ANSI)
100
AcDbTrace
 10
14.09680682041284
 20
12.39715555600353
 30
0.0
 11
14.09680682041284
 21
12.3643471577965
 31
0.0
 12
14.19523201503393
 22
12.38075135690002
 32
0.0
 13
14.19523201503393
 23
12.38075135690002
 33
0.0
  0
MTEXT
  5
D3A
330
D33
100
AcDbEntity
  8
Dimension (ANSI)
100
AcDbMText
 10
13.05976524350463
 20
12.5056674129047
 30
0.0
 40
0.2400000095367432
 41
0.0
 71
     1
 72
     1
  1
\A1;1.500
  7
Note Text (ANSI)
 73
     1
 44
1.0
  0
POINT
  5
D3B
330
D33
100
AcDbEntity
  8
Defpoints
 62
     0
100
AcDbPoint
 10
12.69523201503393
 20
11.27838915217561
 30
0.0
  0
POINT
  5
D3C
330
D33
100
AcDbEntity
  8
Defpoints
 62
     0
100
AcDbPoint
 10
14.19523201503393
 20
11.27838915217561
 30
0.0
  0
POINT
  5
D3D
330
D33
100
AcDbEntity
  8
Defpoints
 62
     0
100
AcDbPoint
 10
14.19523201503393
 20
12.38075135690002
 30
0.0
  0
ENDBLK
  5
D3F
330
D33
100
AcDbEntity
  8
0
100
AcDbBlockEnd
  0
ENDSEC
  0
SECTION
  2
ENTITIES
  0
INSERT
  5
F3
330
23
100
AcDbEntity
  8
0
100
AcDbBlockReference
  2
Borders Default Border
 10
0.0
 20
0.0
 30
0.0
  0
INSERT
  5
123
330
23
100
AcDbEntity
  8
0
100
AcDbBlockReference
 66
     1
  2
Title Blocks ANSI - Large
 10
8.499989960629921
 20
-4.449984125718459
 30
0.0
  0
ATTRIB
  5
125
330
123
100
AcDbEntity
  8
Title (ANSI)
100
AcDbText
 10
13.53
 20
1.190510409137605
 30
0.0
 40
0.1249999981226883
  1

  7
Note Text (ANSI)
 11
13.53
 21
1.154999999999997
 31
0.0
100
AcDbAttribute
  2
ENG_APPROVED_BY
 70
     0
 74
     1
  0
ATTRIB
  5
126
330
123
100
AcDbEntity
  8
Title (ANSI)
100
AcDbText
 10
13.53
 20
1.565510409137605
 30
0.0
 40
0.1249999981226883
  1

  7
Note Text (ANSI)
 11
13.53
 21
1.529999999999998
 31
0.0
100
AcDbAttribute
  2
MFG_APPROVED_BY
 70
     0
 74
     1
  0
ATTRIB
  5
127
330
123
100
AcDbEntity
  8
Title (ANSI)
100
AcDbText
 10
13.53
 20
2.690510409137605
 30
0.0
 40
0.1249999981226883
  1
Robin Gudgel
  7
Note Text (ANSI)
 11
13.53
 21
2.654999999999998
 31
0.0
100
AcDbAttribute
  2
AUTHOR
 70
     0
 74
     1
  0
ATTRIB
  5
128
330
123
100
AcDbEntity
  8
Title (ANSI)
100
AcDbText
 10
13.53
 20
2.315510409137604
 30
0.0
 40
0.1249999981226883
  1

  7
Note Text (ANSI)
 11
13.53
 21
2.279999999999997
 31
0.0
100
AcDbAttribute
  2
CHECKED_BY
 70
     0
 74
     1
  0
ATTRIB
  5
129
330
123
100
AcDbEntity
  8
Title (ANSI)
100
AcDbText
 10
15.28000351377953
 20
2.690510409137607
 30
0.0
 40
0.1249999981226883
  1
8/1/2011
  7
Note Text (ANSI)
 11
15.28000351377953
 21
2.655
 31
0.0
100
AcDbAttribute
  2
CREATION_DATE
 70
     0
 74
     1
  0
ATTRIB
  5
12A
330
123
100
AcDbEntity
  8
Title (ANSI)
100
AcDbText
 10
15.28000351377953
 20
2.315510409137607
 30
0.0
 40
0.1249999981226883
  1

  7
Note Text (ANSI)
 11
15.28000351377953
 21
2.28
 31
0.0
100
AcDbAttribute
  2
CHECKED_DATE
 70
     0
 74
     1
  0
ATTRIB
  5
12B
330
123
100
AcDbEntity
  8
Title (ANSI)
100
AcDbText
 10
15.28000351377953
 20
1.565510409137608
 30
0.0
 40
0.1249999981226883
  1

  7
Note Text (ANSI)
 11
15.28000351377953
 21
1.530000000000001
 31
0.0
100
AcDbAttribute
  2
MFG_APPROVED_DATE
 70
     0
 74
     1
  0
ATTRIB
  5
12C
330
123
100
AcDbEntity
  8
Title (ANSI)
100
AcDbText
 10
15.28000351377953
 20
1.190510409137608
 30
0.0
 40
0.1249999981226883
  1

  7
Note Text (ANSI)
 11
15.28000351377953
 21
1.155000000000001
 31
0.0
100
AcDbAttribute
  2
ENG_APPROVAL_DATE
 70
     0
 74
     1
  0
ATTRIB
  5
12D
330
123
100
AcDbEntity
  8
Title (ANSI)
100
AcDbText
 10
17.78
 20
0.8311349888915046
 30
0.0
 40
0.1799999963580154
  1
MNEDC250 DIMS
  7
Note Text (ANSI)
 11
17.78
 21
0.7800000000000067
 31
0.0
100
AcDbAttribute
  2
PART_NUMBER
 70
     0
 74
     1
  0
ATTRIB
  5
12E
330
123
100
AcDbEntity
  8
Title (ANSI)
100
AcDbText
 10
16.28
 20
1.682761820729618
 30
0.0
 40
0.1799999963580154
  1
                MNEDC175 & 250
  7
Note Text (ANSI)
 11
16.28
 21
1.772761818908626
 31
0.0
100
AcDbAttribute
  2
TITLE
 70
     0
 74
     2
  0
ATTRIB
  5
12F
330
123
100
AcDbEntity
  8
Title (ANSI)
100
AcDbText
 10
16.4256548033847
 20
0.8350007547737471
 30
0.0
 40
0.1799999963580154
  1
C
  7
Note Text (ANSI)
 72
     1
 11
16.49999999999999
 21
0.9250007529527549
 31
0.0
100
AcDbAttribute
  2
Sheet_Size
 70
     0
 74
     2
  0
ATTRIB
  5
130
330
123
100
AcDbEntity
  8
Title (ANSI)
100
AcDbText
 10
18.12088651045572
 20
2.627501888340229
 30
0.0
 40
0.1249999981226883
  1
MIDNITE SOLAR
  7
Note Text (ANSI)
 72
     1
 11
18.75
 21
2.690001887401573
 31
0.0
100
AcDbAttribute
  2
COMPANY
 70
     0
 74
     2
  0
ATTRIB
  5
131
330
123
100
AcDbEntity
  8
Title (ANSI)
100
AcDbText
 10
20.81686534862012
 20
0.8625007538914196
 30
0.0
 40
0.1249999981226883
  1
NEW
  7
Note Text (ANSI)
 72
     1
 11
21.0
 21
0.9250007529527637
 31
0.0
100
AcDbAttribute
  2
REVISION_NUMBER
 70
     0
 74
     2
  0
SEQEND
  5
124
330
123
100
AcDbEntity
  8
0
  0
LINE
  5
132
330
23
100
AcDbEntity
  8
Visible (ANSI)
100
AcDbLine
 10
3.656190231432441
 20
10.5999636033365
 30
0.0
 11
3.656190231432441
 21
10.9749636033365
 31
0.0
  0
LINE
  5
133
330
23
100
AcDbEntity
  8
Visible (ANSI)
100
AcDbLine
 10
3.656190231432441
 20
4.649963603336507
 30
0.0
 11
3.656190231432441
 21
5.024963603336508
 31
0.0
  0
LINE
  5
134
330
23
100
AcDbEntity
  8
Visible (ANSI)
100
AcDbLine
 10
4.45619023143244
 20
10.5999636033365
 30
0.0
 11
3.65619023143244
 21
10.5999636033365
 31
0.0
  0
LINE
  5
135
330
23
100
AcDbEntity
  8
Visible (ANSI)
100
AcDbLine
 10
4.45619023143244
 20
10.9749636033365
 30
0.0
 11
3.656190231432441
 21
10.9749636033365
 31
0.0
  0
LINE
  5
136
330
23
100
AcDbEntity
  8
Visible (ANSI)
100
AcDbLine
 10
4.45619023143244
 20
4.649963603336507
 30
0.0
 11
3.65619023143244
 21
4.649963603336507
 31
0.0
  0
LINE
  5
137
330
23
100
AcDbEntity
  8
Visible (ANSI)
100
AcDbLine
 10
4.45619023143244
 20
5.024963603336508
 30
0.0
 11
3.656190231432441
 21
5.024963603336508
 31
0.0
  0
LINE
  5
138
330
23
100
AcDbEntity
  8
Visible (ANSI)
100
AcDbLine
 10
4.45619023143244
 20
4.462463603336507
 30
0.0
 11
4.45619023143244
 21
5.212463603336508
 31
0.0
  0
LINE
  5
139
330
23
100
AcDbEntity
  8
Visible (ANSI)
100
AcDbLine
 10
4.45619023143244
 20
10.41246360333651
 30
0.0
 11
4.45619023143244
 21
11.1624636033365
 31
0.0
  0
LINE
  5
13A
330
23
100
AcDbEntity
  8
Visible (ANSI)
100
AcDbLine
 10
4.90619023143244
 20
4.462463603336507
 30
0.0
 11
4.45619023143244
 21
4.462463603336507
 31
0.0
  0
LINE
  5
13B
330
23
100
AcDbEntity
  8
Visible (ANSI)
100
AcDbLine
 10
4.90619023143244
 20
5.212463603336508
 30
0.0
 11
4.45619023143244
 21
5.212463603336507
 31
0.0
  0
LINE
  5
13C
330
23
100
AcDbEntity
  8
Visible (ANSI)
100
AcDbLine
 10
4.90619023143244
 20
10.41246360333651
 30
0.0
 11
4.45619023143244
 21
10.41246360333651
 31
0.0
  0
LINE
  5
13D
330
23
100
AcDbEntity
  8
Visible (ANSI)
100
AcDbLine
 10
4.90619023143244
 20
11.1624636033365
 30
0.0
 11
4.45619023143244
 21
11.1624636033365
 31
0.0
  0
LINE
  5
13E
330
23
100
AcDbEntity
  8
Visible (ANSI)
100
AcDbLine
 10
8.013190231432441
 20
6.814389148238603
 30
0.0
 11
8.02285817431983
 21
6.814389148238603
 31
0.0
  0
LINE
  5
13F
330
23
100
AcDbEntity
  8
Visible (ANSI)
100
AcDbLine
 10
8.02285817431983
 20
6.813793347396535
 30
0.0
 11
8.02285817431983
 21
6.814389148238603
 31
0.0
  0
ELLIPSE
  5
140
330
23
100
AcDbEntity
  8
Visible (ANSI)
100
AcDbEllipse
 10
8.033217068509269
 20
6.758793347396537
 30
0.0
 11
0.0
 21
-0.055
 31
0.0
210
0.0
220
0.0
230
0.9999999999999998
 40
0.1218693434051485
 41
0.0
 42
3.141592653589786
  0
LINE
  5
141
330
23
100
AcDbEntity
  8
Visible (ANSI)
100
AcDbLine
 10
8.013190231432441
 20
6.813793347396535
 30
0.0
 11
8.033217068509269
 21
6.813793347396535
 31
0.0
  0
LINE
  5
142
330
23
100
AcDbEntity
  8
Visible (ANSI)
100
AcDbLine
 10
8.013190231432441
 20
6.703793347396536
 30
0.0
 11
8.033217068509269
 21
6.703793347396536
 31
0.0
  0
ARC
  5
143
330
23
100
AcDbEntity
  8
Visible (ANSI)
100
AcDbCircle
 10
8.061190231432441
 20
6.196389148238604
 30
0.0
 40
0.015
100
AcDbArc
 50
270.0
 51
0.0
  0
ARC
  5
144
330
23
100
AcDbEntity
  8
Visible (ANSI)
100
AcDbCircle
 10
8.061190231432441
 20
6.525175944803007
 30
0.0
 40
0.0150000000000005
100
AcDbArc
 50
0.0
 51
44.99999999999999
  0
ARC
  5
145
330
23
100
AcDbEntity
  8
Visible (ANSI)
100
AcDbCircle
 10
8.061190231432441
 20
8.1496023516742
 30
0.0
 40
0.0150000000000005
100
AcDbArc
 50
315.0
 51
0.0
  0
ARC
  5
146
330
23
100
AcDbEntity
  8
Visible (ANSI)
100
AcDbCircle
 10
8.061190231432441
 20
8.478389148238603
 30
0.0
 40
0.015
100
AcDbArc
 50
0.0
 51
90.0
  0
LINE
  5
147
330
23
100
AcDbEntity
  8
Visible (ANSI)
100
AcDbLine
 10
8.061190231432441
 20
6.181389148238603
 30
0.0
 11
7.856190231432441
 21
6.181389148238603
 31
0.0
  0
LINE
  5
148
330
23
100
AcDbEntity
  8
Visible (ANSI)
100
AcDbLine
 10
8.076190231432441
 20
6.525175944803007
 30
0.0
 11
8.076190231432441
 21
6.196389148238604
 31
0.0
  0
LINE
  5
149
330
23
100
AcDbEntity
  8
Visible (ANSI)
100
AcDbLine
 10
8.013190231432441
 20
6.594389148238603
 30
0.0
 11
8.071796833150239
 21
6.535782546520805
 31
0.0
  0
LINE
  5
14A
330
23
100
AcDbEntity
  8
Visible (ANSI)
100
AcDbLine
 10
8.013190231432441
 20
6.681389148238603
 30
0.0
 11
8.013190231432441
 21
6.594389148238603
 31
0.0
  0
LINE
  5
14B
330
23
100
AcDbEntity
  8
Visible (ANSI)
100
AcDbLine
 10
8.013190231432441
 20
7.843389148238603
 30
0.0
 11
8.013190231432441
 21
6.831389148238604
 31
0.0
  0
LINE
  5
14C
330
23
100
AcDbEntity
  8
Visible (ANSI)
100
AcDbLine
 10
8.013190231432441
 20
8.080389148238603
 30
0.0
 11
8.013190231432441
 21
7.993389148238604
 31
0.0
  0
LINE
  5
14D
330
23
100
AcDbEntity
  8
Visible (ANSI)
100
AcDbLine
 10
8.071796833150239
 20
8.138995749956402
 30
0.0
 11
8.013190231432441
 21
8.080389148238603
 31
0.0
  0
LINE
  5
14E
330
23
100
AcDbEntity
  8
Visible (ANSI)
100
AcDbLine
 10
8.076190231432441
 20
8.478389148238603
 30
0.0
 11
8.076190231432441
 21
8.1496023516742
 31
0.0
  0
LINE
  5
14F
330
23
100
AcDbEntity
  8
Visible (ANSI)
100
AcDbLine
 10
7.856190231432441
 20
8.493389148238604
 30
0.0
 11
8.061190231432441
 21
8.493389148238604
 31
0.0
  0
LINE
  5
150
330
23
100
AcDbEntity
  8
Visible (ANSI)
100
AcDbLine
 10
7.85619023143244
 20
9.533389148238603
 30
0.0
 11
7.856190231432441
 21
8.493389148238604
 31
0.0
  0
LINE
  5
151
330
23
100
AcDbEntity
  8
Visible (ANSI)
100
AcDbLine
 10
7.856190231432441
 20
6.181389148238603
 30
0.0
 11
7.856190231432441
 21
6.108389148238604
 31
0.0
  0
ARC
  5
152
330
23
100
AcDbEntity
  8
Visible (ANSI)
100
AcDbCircle
 10
7.156190231432443
 20
4.953389148238601
 30
0.0
 40
0.6999999999999975
100
AcDbArc
 50
337.311908849129
 51
0.0
  0
LINE
  5
153
330
23
100
AcDbEntity
  8
Visible (ANSI)
100
AcDbLine
 10
7.85619023143244
 20
10.6683891482386
 30
0.0
 11
7.85619023143244
 21
9.933389148238605
 31
0.0
  0
ARC
  5
154
330
23
100
AcDbEntity
  8
Visible (ANSI)
100
AcDbCircle
 10
7.15619023143244
 20
10.6683891482386
 30
0.0
 40
0.7000000000000001
100
AcDbArc
 50
0.0
 51
22.68809115087101
  0
LINE
  5
155
330
23
100
AcDbEntity
  8
Visible (ANSI)
100
AcDbLine
 10
7.856190231432441
 20
5.708389148238604
 30
0.0
 11
7.856190231432441
 21
4.953389148238602
 31
0.0
  0
CIRCLE
  5
156
330
23
100
AcDbEntity
  8
Visible (ANSI)
100
AcDbCircle
 10
7.596190231432442
 20
8.073389148238604
 30
0.0
 40
0.13
  0
LINE
  5
157
330
23
100
AcDbEntity
  8
Visible (ANSI)
100
AcDbLine
 10
7.685472263735196
 20
9.933389148238605
 30
0.0
 11
7.556190231432442
 21
9.933389148238605
 31
0.0
  0
LINE
  5
158
330
23
100
AcDbEntity
  8
Visible (ANSI)
100
AcDbLine
 10
7.556190231432442
 20
5.713714774185311
 30
0.0
 11
7.556190231432442
 21
5.708389148238603
 31
0.0
  0
LINE
  5
159
330
23
100
AcDbEntity
  8
Visible (ANSI)
100
AcDbLine
 10
7.556190231432442
 20
5.708389148238603
 30
0.0
 11
7.685472263735197
 21
5.708389148238604
 31
0.0
  0
ARC
  5
15A
330
23
100
AcDbEntity
  8
Visible (ANSI)
100
AcDbCircle
 10
7.616190231432441
 20
5.598389148238603
 30
0.0
 40
0.1300000000000002
100
AcDbArc
 50
117.4864262503812
 51
57.79577249602784
  0
LINE
  5
15B
330
23
100
AcDbEntity
  8
Visible (ANSI)
100
AcDbLine
 10
7.556190231432442
 20
9.933389148238605
 30
0.0
 11
7.556190231432442
 21
9.928063522291896
 31
0.0
  0
ARC
  5
15C
330
23
100
AcDbEntity
  8
Visible (ANSI)
100
AcDbCircle
 10
7.616190231432441
 20
10.0433891482386
 30
0.0
 40
0.13
100
AcDbArc
 50
302.2042275039723
 51
242.5135737496187
  0
LINE
  5
15D
330
23
100
AcDbEntity
  8
Visible (ANSI)
100
AcDbLine
 10
8.013190231432441
 20
6.831389148238604
 30
0.0
 11
8.013190231432441
 21
6.681389148238603
 31
0.0
  0
LINE
  5
15E
330
23
100
AcDbEntity
  8
Visible (ANSI)
100
AcDbLine
 10
8.013190231432441
 20
7.993389148238604
 30
0.0
 11
8.013190231432441
 21
7.843389148238603
 31
0.0
  0
LINE
  5
15F
330
23
100
AcDbEntity
  8
Visible (ANSI)
100
AcDbLine
 10
7.85619023143244
 20
9.533389148238603
 30
0.0
 11
7.556190231432442
 21
9.533389148238603
 31
0.0
  0
LINE
  5
160
330
23
100
AcDbEntity
  8
Visible (ANSI)
100
AcDbLine
 10
7.556190231432442
 20
6.108389148238604
 30
0.0
 11
7.856190231432441
 21
6.108389148238604
 31
0.0
  0
LINE
  5
161
330
23
100
AcDbEntity
  8
Visible (ANSI)
100
AcDbLine
 10
7.685472263735196
 20
9.933389148238605
 30
0.0
 11
7.85619023143244
 21
9.933389148238605
 31
0.0
  0
LINE
  5
162
330
23
100
AcDbEntity
  8
Visible (ANSI)
100
AcDbLine
 10
7.856190231432441
 20
5.708389148238604
 30
0.0
 11
7.685472263735197
 21
5.708389148238604
 31
0.0
  0
LINE
  5
163
330
23
100
AcDbEntity
  8
Visible (ANSI)
100
AcDbLine
 10
7.556190231432442
 20
9.533389148238603
 30
0.0
 11
7.556190231432442
 21
9.628389148238605
 31
0.0
  0
LINE
  5
164
330
23
100
AcDbEntity
  8
Visible (ANSI)
100
AcDbLine
 10
7.556190231432442
 20
6.013389148238604
 30
0.0
 11
7.556190231432442
 21
6.108389148238604
 31
0.0
  0
LINE
  5
165
330
23
100
AcDbEntity
  8
Visible (ANSI)
100
AcDbLine
 10
7.556190231432442
 20
5.803389148238604
 30
0.0
 11
7.556190231432442
 21
6.013389148238604
 31
0.0
  0
LINE
  5
166
330
23
100
AcDbEntity
  8
Visible (ANSI)
100
AcDbLine
 10
7.556190231432442
 20
5.713714774185311
 30
0.0
 11
7.556190231432442
 21
5.803389148238604
 31
0.0
  0
LINE
  5
167
330
23
100
AcDbEntity
  8
Visible (ANSI)
100
AcDbLine
 10
7.556190231432442
 20
9.838389148238604
 30
0.0
 11
7.556190231432442
 21
9.928063522291896
 31
0.0
  0
LINE
  5
168
330
23
100
AcDbEntity
  8
Visible (ANSI)
100
AcDbLine
 10
7.556190231432442
 20
9.628389148238605
 30
0.0
 11
7.556190231432442
 21
9.838389148238604
 31
0.0
  0
LINE
  5
169
330
23
100
AcDbEntity
  8
Visible (ANSI)
100
AcDbLine
 10
7.81619023143244
 20
9.933389148238605
 30
0.0
 11
7.81619023143244
 21
9.533389148238603
 31
0.0
  0
LINE
  5
16A
330
23
100
AcDbEntity
  8
Visible (ANSI)
100
AcDbLine
 10
7.81619023143244
 20
6.108389148238604
 30
0.0
 11
7.81619023143244
 21
5.708389148238603
 31
0.0
  0
LINE
  5
16B
330
23
100
AcDbEntity
  8
Visible (ANSI)
100
AcDbLine
 10
7.556190231432442
 20
9.628389148238605
 30
0.0
 11
5.33619023143244
 21
9.628389148238603
 31
0.0
  0
LINE
  5
16C
330
23
100
AcDbEntity
  8
Visible (ANSI)
100
AcDbLine
 10
5.336190231432442
 20
6.013389148238603
 30
0.0
 11
7.556190231432442
 21
6.013389148238604
 31
0.0
  0
LINE
  5
16D
330
23
100
AcDbEntity
  8
Visible (ANSI)
100
AcDbLine
 10
4.90619023143244
 20
5.825471587433341
 30
0.0
 11
4.90619023143244
 21
6.005471587433341
 31
0.0
  0
LINE
  5
16E
330
23
100
AcDbEntity
  8
Visible (ANSI)
100
AcDbLine
 10
4.90619023143244
 20
9.636306709043866
 30
0.0
 11
4.90619023143244
 21
9.83047158743334
 31
0.0
  0
LINE
  5
16F
330
23
100
AcDbEntity
  8
Visible (ANSI)
100
AcDbLine
 10
7.556190231432442
 20
5.803389148238604
 30
0.0
 11
5.336190231432442
 21
5.803389148238603
 31
0.0
  0
LINE
  5
170
330
23
100
AcDbEntity
  8
Visible (ANSI)
100
AcDbLine
 10
5.33619023143244
 20
9.838389148238602
 30
0.0
 11
7.556190231432442
 21
9.838389148238604
 31
0.0
  0
LINE
  5
171
330
23
100
AcDbEntity
  8
Visible (ANSI)
100
AcDbLine
 10
5.33619023143244
 20
9.628389148238603
 30
0.0
 11
5.336190231432442
 21
6.013389148238602
 31
0.0
  0
LINE
  5
172
330
23
100
AcDbEntity
  8
Visible (ANSI)
100
AcDbLine
 10
4.90619023143244
 20
4.253389148238602
 30
0.0
 11
4.90619023143244
 21
5.525471587433341
 31
0.0
  0
LINE
  5
173
330
23
100
AcDbEntity
  8
Visible (ANSI)
100
AcDbLine
 10
4.90619023143244
 20
6.005471587433341
 30
0.0
 11
4.90619023143244
 21
9.231306709043865
 31
0.0
  0
LINE
  5
174
330
23
100
AcDbEntity
  8
Visible (ANSI)
100
AcDbLine
 10
4.90619023143244
 20
9.491306709043865
 30
0.0
 11
4.90619023143244
 21
9.636306709043866
 31
0.0
  0
LINE
  5
175
330
23
100
AcDbEntity
  8
Visible (ANSI)
100
AcDbLine
 10
4.90619023143244
 20
9.830471587433342
 30
0.0
 11
4.90619023143244
 21
11.3683891482386
 31
0.0
  0
LINE
  5
176
330
23
100
AcDbEntity
  8
Visible (ANSI)
100
AcDbLine
 10
5.24119023143244
 20
5.811306709043865
 30
0.0
 11
5.336190231432442
 21
5.811306709043865
 31
0.0
  0
LINE
  5
177
330
23
100
AcDbEntity
  8
Visible (ANSI)
100
AcDbLine
 10
5.336190231432442
 20
5.811306709043866
 30
0.0
 11
5.336190231432442
 21
5.803389148238604
 31
0.0
  0
LINE
  5
178
330
23
100
AcDbEntity
  8
Visible (ANSI)
100
AcDbLine
 10
5.336190231432442
 20
6.013389148238603
 30
0.0
 11
5.336190231432442
 21
6.005471587433341
 31
0.0
  0
LINE
  5
179
330
23
100
AcDbEntity
  8
Visible (ANSI)
100
AcDbLine
 10
5.336190231432442
 20
6.005471587433341
 30
0.0
 11
4.90619023143244
 21
6.005471587433341
 31
0.0
  0
LINE
  5
17A
330
23
100
AcDbEntity
  8
Visible (ANSI)
100
AcDbLine
 10
7.156190231432442
 20
4.253389148238602
 30
0.0
 11
4.90619023143244
 21
4.253389148238602
 31
0.0
  0
ARC
  5
17B
330
23
100
AcDbEntity
  8
Visible (ANSI)
100
AcDbCircle
 10
7.156190231432442
 20
4.9533891482386
 30
0.0
 40
0.6999999999999989
100
AcDbArc
 50
270.0
 51
337.3119088491291
  0
LINE
  5
17C
330
23
100
AcDbEntity
  8
Visible (ANSI)
100
AcDbLine
 10
5.336190231432442
 20
4.683389148238602
 30
0.0
 11
7.802023027131142
 21
4.683389148238602
 31
0.0
  0
LINE
  5
17D
330
23
100
AcDbEntity
  8
Visible (ANSI)
100
AcDbLine
 10
4.90619023143244
 20
9.636306709043866
 30
0.0
 11
5.33619023143244
 21
9.636306709043866
 31
0.0
  0
ARC
  5
17E
330
23
100
AcDbEntity
  8
Visible (ANSI)
100
AcDbCircle
 10
7.15619023143244
 20
10.6683891482386
 30
0.0
 40
0.7000000000000007
100
AcDbArc
 50
22.68809115087112
 51
90.0
  0
LINE
  5
17F
330
23
100
AcDbEntity
  8
Visible (ANSI)
100
AcDbLine
 10
4.90619023143244
 20
11.3683891482386
 30
0.0
 11
7.15619023143244
 21
11.3683891482386
 31
0.0
  0
LINE
  5
180
330
23
100
AcDbEntity
  8
Visible (ANSI)
100
AcDbLine
 10
5.33619023143244
 20
9.830471587433342
 30
0.0
 11
4.90619023143244
 21
9.830471587433342
 31
0.0
  0
LINE
  5
181
330
23
100
AcDbEntity
  8
Visible (ANSI)
100
AcDbLine
 10
5.336190231432442
 20
9.838389148238604
 30
0.0
 11
5.336190231432442
 21
9.830471587433342
 31
0.0
  0
LINE
  5
182
330
23
100
AcDbEntity
  8
Visible (ANSI)
100
AcDbLine
 10
5.33619023143244
 20
10.9383891482386
 30
0.0
 11
5.33619023143244
 21
9.838389148238602
 31
0.0
  0
LINE
  5
183
330
23
100
AcDbEntity
  8
Visible (ANSI)
100
AcDbLine
 10
5.336190231432442
 20
9.636306709043866
 30
0.0
 11
5.336190231432442
 21
9.628389148238603
 31
0.0
  0
LINE
  5
184
330
23
100
AcDbEntity
  8
Visible (ANSI)
100
AcDbLine
 10
5.336190231432442
 20
5.803389148238603
 30
0.0
 11
5.336190231432442
 21
4.683389148238602
 31
0.0
  0
LINE
  5
185
330
23
100
AcDbEntity
  8
Visible (ANSI)
100
AcDbLine
 10
7.802023027131141
 20
10.9383891482386
 30
0.0
 11
5.33619023143244
 21
10.9383891482386
 31
0.0
  0
LINE
  5
186
330
23
100
AcDbEntity
  8
Visible (ANSI)
100
AcDbLine
 10
4.90619023143244
 20
5.525471587433341
 30
0.0
 11
4.90619023143244
 21
5.825471587433341
 31
0.0
  0
LINE
  5
187
330
23
100
AcDbEntity
  8
Visible (ANSI)
100
AcDbLine
 10
4.90619023143244
 20
9.231306709043865
 30
0.0
 11
4.90619023143244
 21
9.491306709043865
 31
0.0
  0
LINE
  5
188
330
23
100
AcDbEntity
  8
Visible (ANSI)
100
AcDbLine
 10
5.24119023143244
 20
5.825471587433341
 30
0.0
 11
5.24119023143244
 21
5.811306709043864
 31
0.0
  0
LINE
  5
189
330
23
100
AcDbEntity
  8
Visible (ANSI)
100
AcDbLine
 10
5.24119023143244
 20
5.811306709043865
 30
0.0
 11
5.24119023143244
 21
5.650471587433341
 31
0.0
  0
ARC
  5
18A
330
23
100
AcDbEntity
  8
Visible (ANSI)
100
AcDbCircle
 10
5.116190231432442
 20
5.65047158743334
 30
0.0
 40
0.1249999999999989
100
AcDbArc
 50
269.9999999999997
 51
0.0
  0
LINE
  5
18B
330
23
100
AcDbEntity
  8
Visible (ANSI)
100
AcDbLine
 10
4.90619023143244
 20
5.825471587433341
 30
0.0
 11
5.24119023143244
 21
5.825471587433341
 31
0.0
  0
LINE
  5
18C
330
23
100
AcDbEntity
  8
Visible (ANSI)
100
AcDbLine
 10
5.116190231432441
 20
5.525471587433342
 30
0.0
 11
4.90619023143244
 21
5.525471587433341
 31
0.0
  0
ARC
  5
18D
330
23
100
AcDbEntity
  8
Visible (ANSI)
100
AcDbCircle
 10
5.10619023143244
 20
9.361306709043864
 30
0.0
 40
0.1299999999999998
100
AcDbArc
 50
270.0
 51
90.0
  0
LINE
  5
18E
330
23
100
AcDbEntity
  8
Visible (ANSI)
100
AcDbLine
 10
4.90619023143244
 20
9.491306709043865
 30
0.0
 11
5.10619023143244
 21
9.491306709043865
 31
0.0
  0
LINE
  5
18F
330
23
100
AcDbEntity
  8
Visible (ANSI)
100
AcDbLine
 10
5.10619023143244
 20
9.231306709043865
 30
0.0
 11
4.90619023143244
 21
9.231306709043865
 31
0.0
  0
CIRCLE
  5
190
330
23
100
AcDbEntity
  8
Visible (ANSI)
100
AcDbCircle
 10
6.686190231432441
 20
11.1783891482386
 30
0.0
 40
0.1
  0
CIRCLE
  5
191
330
23
100
AcDbEntity
  8
Visible (ANSI)
100
AcDbCircle
 10
6.686190231432441
 20
4.443389148238602
 30
0.0
 40
0.1
  0
CIRCLE
  5
192
330
23
100
AcDbEntity
  8
Visible (ANSI)
100
AcDbCircle
 10
5.686190231432441
 20
4.443389148238602
 30
0.0
 40
0.1
  0
CIRCLE
  5
193
330
23
100
AcDbEntity
  8
Visible (ANSI)
100
AcDbCircle
 10
5.686190231432441
 20
11.1783891482386
 30
0.0
 40
0.1
  0
LINE
  5
194
330
23
100
AcDbEntity
  8
Visible (ANSI)
100
AcDbLine
 10
8.013190231432441
 20
7.861959478983341
 30
0.0
 11
8.018639007380139
 21
7.861959478983341
 31
0.0
  0
LINE
  5
195
330
23
100
AcDbEntity
  8
Visible (ANSI)
100
AcDbLine
 10
8.018639007380139
 20
7.861959478983341
 30
0.0
 11
8.018639007380139
 21
7.862129825390833
 31
0.0
  0
ELLIPSE
  5
196
330
23
100
AcDbEntity
  8
Visible (ANSI)
100
AcDbEllipse
 10
8.029310486875694
 20
7.918629825390833
 30
0.0
 11
0.0
 21
-0.0565
 31
0.0
210
0.0
220
0.0
230
0.9999999999999998
 40
0.1218693434051476
 41
0.0000000000004158
 42
3.141592653590208
  0
LINE
  5
197
330
23
100
AcDbEntity
  8
Visible (ANSI)
100
AcDbLine
 10
8.013190231432441
 20
7.975129825390832
 30
0.0
 11
8.029310486875694
 21
7.975129825390832
 31
0.0
  0
LINE
  5
198
330
23
100
AcDbEntity
  8
Visible (ANSI)
100
AcDbLine
 10
8.013190231432441
 20
7.862129825390833
 30
0.0
 11
8.029310486875694
 21
7.862129825390833
 31
0.0
  0
LINE
  5
199
330
23
100
AcDbEntity
  8
Visible (ANSI)
100
AcDbLine
 10
8.249051835782724
 20
7.784326502775848
 30
0.0
 11
8.892269406261394
 21
8.082867503289138
 31
0.0
  0
ARC
  5
19A
330
23
100
AcDbEntity
  8
Visible (ANSI)
100
AcDbCircle
 10
8.257471840721628
 20
7.766185292319299
 30
0.0
 40
0.02
100
AcDbArc
 50
114.8977533754557
 51
255.7826259908991
  0
ARC
  5
19B
330
23
100
AcDbEntity
  8
Visible (ANSI)
100
AcDbCircle
 10
8.213637966430356
 20
7.593176128307478
 30
0.0
 40
0.158475710861316
100
AcDbArc
 50
350.297900622563
 51
75.78262599089957
  0
ARC
  5
19C
330
23
100
AcDbEntity
  8
Visible (ANSI)
100
AcDbCircle
 10
8.389560991813796
 20
7.563098420492734
 30
0.0
 40
0.02
100
AcDbArc
 50
170.297900622562
 51
303.9853827924271
  0
LINE
  5
19D
330
23
100
AcDbEntity
  8
Visible (ANSI)
100
AcDbLine
 10
8.975923902246188
 20
7.934267375232305
 30
0.0
 11
8.40074061946453
 21
7.546514816373274
 31
0.0
  0
ARC
  5
19E
330
23
100
AcDbEntity
  8
Visible (ANSI)
100
AcDbCircle
 10
8.964744274595457
 20
7.950850979351764
 30
0.0
 40
0.0199999999999996
100
AcDbArc
 50
303.9853827924237
 51
29.35775337545593
  0
LINE
  5
19F
330
23
100
AcDbEntity
  8
Visible (ANSI)
100
AcDbLine
 10
8.918120921971425
 20
8.07453151757433
 30
0.0
 11
8.982175785366584
 21
7.960656204093505
 31
0.0
  0
ARC
  5
1A0
330
23
100
AcDbEntity
  8
Visible (ANSI)
100
AcDbCircle
 10
8.900689411200298
 20
8.06472629283259
 30
0.0
 40
0.0199999999999996
100
AcDbArc
 50
29.3577533754594
 51
114.8977533754594
  0
CIRCLE
  5
1A1
330
23
100
AcDbEntity
  8
Visible (ANSI)
100
AcDbCircle
 10
8.213637966430356
 20
7.593176128307478
 30
0.0
 40
0.0625
  0
LINE
  5
1A2
330
23
100
AcDbEntity
  8
Visible (ANSI)
100
AcDbLine
 10
9.133140171571728
 20
7.998234401994446
 30
0.0
 11
9.040360451154784
 21
8.163176128307478
 31
0.0
  0
ARC
  5
1A3
330
23
100
AcDbEntity
  8
Visible (ANSI)
100
AcDbCircle
 10
8.988065918841401
 20
8.133760454082253
 30
0.0
 40
0.0599999999999998
100
AcDbArc
 50
29.35775337545708
 51
114.8077533754571
  0
LINE
  5
1A4
330
23
100
AcDbEntity
  8
Visible (ANSI)
100
AcDbLine
 10
8.962891423593067
 20
8.188223696631624
 30
0.0
 11
8.013190231432441
 21
7.749244175210126
 31
0.0
  0
LINE
  5
1A5
330
23
100
AcDbEntity
  8
Visible (ANSI)
100
AcDbLine
 10
8.013190231432441
 20
7.447907110701122
 30
0.0
 11
8.091902901531309
 21
7.307973474013377
 31
0.0
  0
ARC
  5
1A6
330
23
100
AcDbEntity
  8
Visible (ANSI)
100
AcDbCircle
 10
8.14419743384469
 20
7.337389148238603
 30
0.0
 40
0.0600000000000001
100
AcDbArc
 50
209.3577533754571
 51
303.9853827924263
  0
LINE
  5
1A7
330
23
100
AcDbEntity
  8
Visible (ANSI)
100
AcDbLine
 10
8.177736316796892
 20
7.287638335880225
 30
0.0
 11
9.114384522210547
 21
7.919067915410843
 31
0.0
  0
ARC
  5
1A8
330
23
100
AcDbEntity
  8
Visible (ANSI)
100
AcDbCircle
 10
9.080845639258347
 20
7.968818727769221
 30
0.0
 40
0.0599999999999997
100
AcDbArc
 50
303.9853827924271
 51
29.35775337545593
  0
LINE
  5
1A9
330
23
100
AcDbEntity
  8
Hidden Narrow (ANSI)
 48
0.9675858616828918
100
AcDbLine
 10
3.65619023143244
 20
10.63011360333651
 30
0.0
 11
4.45619023143244
 21
10.63011360333651
 31
0.0
  0
LINE
  5
1AA
330
23
100
AcDbEntity
  8
Hidden Narrow (ANSI)
 48
0.9675858616828918
100
AcDbLine
 10
4.45619023143244
 20
10.9448136033365
 30
0.0
 11
3.656190231432441
 21
10.9448136033365
 31
0.0
  0
LINE
  5
1AB
330
23
100
AcDbEntity
  8
Hidden Narrow (ANSI)
 48
0.9675858616828918
100
AcDbLine
 10
3.65619023143244
 20
4.680113603336508
 30
0.0
 11
4.45619023143244
 21
4.680113603336508
 31
0.0
  0
LINE
  5
1AC
330
23
100
AcDbEntity
  8
Hidden Narrow (ANSI)
 48
0.9675858616828918
100
AcDbLine
 10
4.45619023143244
 20
4.994813603336507
 30
0.0
 11
3.656190231432441
 21
4.994813603336507
 31
0.0
  0
CIRCLE
  5
1AD
330
23
100
AcDbEntity
  8
Visible (ANSI)
100
AcDbCircle
 10
13.44523201503377
 20
10.78746360333651
 30
0.0
 40
0.28
  0
CIRCLE
  5
1AE
330
23
100
AcDbEntity
  8
Visible (ANSI)
100
AcDbCircle
 10
13.44523201503377
 20
4.837463603336508
 30
0.0
 40
0.28
  0
ELLIPSE
  5
1AF
330
23
100
AcDbEntity
  8
Visible (ANSI)
100
AcDbEllipse
 10
12.77463570716563
 20
6.758793347396537
 30
0.0
 11
0.0000000000000002
 21
-0.0337248684310226
 31
0.0
210
0.0
220
0.0
230
0.9999999999999998
 40
0.9925461516412859
 41
0.054638764195469
 42
3.086953889394312
  0
ELLIPSE
  5
1B0
330
23
100
AcDbEntity
  8
Visible (ANSI)
100
AcDbEllipse
 10
12.77829178746779
 20
6.758793347396537
 30
0.0
 11
0.0
 21
-0.0337248684310226
 31
0.0
210
0.0
220
0.0
230
0.9999999999999998
 40
0.9925461516412857
 41
0.0
 42
6.283185307179586
  0
LINE
  5
1B1
330
23
100
AcDbEntity
  8
Visible (ANSI)
100
AcDbLine
 10
12.97230286678746
 20
6.814389148238603
 30
0.0
 11
13.03963118319403
 21
6.814389148238603
 31
0.0
  0
LINE
  5
1B2
330
23
100
AcDbEntity
  8
Visible (ANSI)
100
AcDbLine
 10
12.9686467864853
 20
6.814389148238603
 30
0.0
 11
12.97230286678746
 21
6.814389148238603
 31
0.0
  0
LINE
  5
1B3
330
23
100
AcDbEntity
  8
Visible (ANSI)
100
AcDbLine
 10
13.03963118319403
 20
6.814389148238603
 30
0.0
 11
13.03963118319403
 21
6.789389148238605
 31
0.0
  0
LINE
  5
1B4
330
23
100
AcDbEntity
  8
Visible (ANSI)
100
AcDbLine
 10
13.03963118319403
 20
6.789389148238605
 30
0.0
 11
12.99711652057849
 21
6.789389148238603
 31
0.0
  0
LINE
  5
1B5
330
23
100
AcDbEntity
  8
Visible (ANSI)
100
AcDbLine
 10
12.99711652057849
 20
6.789389148238603
 30
0.0
 11
12.99711652057849
 21
6.769389148238603
 31
0.0
  0
LINE
  5
1B6
330
23
100
AcDbEntity
  8
Visible (ANSI)
100
AcDbLine
 10
12.99711652057849
 20
6.769389148238603
 30
0.0
 11
13.02689290512773
 21
6.769389148238603
 31
0.0
  0
LINE
  5
1B7
330
23
100
AcDbEntity
  8
Visible (ANSI)
100
AcDbLine
 10
13.02689290512773
 20
6.769389148238603
 30
0.0
 11
13.02689290512773
 21
6.744389148238605
 31
0.0
  0
LINE
  5
1B8
330
23
100
AcDbEntity
  8
Visible (ANSI)
100
AcDbLine
 10
13.02689290512773
 20
6.744389148238605
 30
0.0
 11
12.99711652057849
 21
6.744389148238603
 31
0.0
  0
LINE
  5
1B9
330
23
100
AcDbEntity
  8
Visible (ANSI)
100
AcDbLine
 10
12.99711652057849
 20
6.744389148238603
 30
0.0
 11
12.99711652057849
 21
6.704389148238604
 31
0.0
  0
LINE
  5
1BA
330
23
100
AcDbEntity
  8
Visible (ANSI)
100
AcDbLine
 10
12.99711652057849
 20
6.704389148238604
 30
0.0
 11
12.97230286678746
 21
6.704389148238604
 31
0.0
  0
LINE
  5
1BB
330
23
100
AcDbEntity
  8
Visible (ANSI)
100
AcDbLine
 10
12.9686467864853
 20
6.704389148238604
 30
0.0
 11
12.97230286678746
 21
6.704389148238604
 31
0.0
  0
LINE
  5
1BC
330
23
100
AcDbEntity
  8
Visible (ANSI)
100
AcDbLine
 10
12.97230286678746
 20
6.704389148238604
 30
0.0
 11
12.97230286678746
 21
6.814389148238603
 31
0.0
  0
LINE
  5
1BD
330
23
100
AcDbEntity
  8
Visible (ANSI)
100
AcDbLine
 10
12.9686467864853
 20
6.704389148238604
 30
0.0
 11
12.9686467864853
 21
6.814389148238603
 31
0.0
  0
LINE
  5
1BE
330
23
100
AcDbEntity
  8
Visible (ANSI)
100
AcDbLine
 10
12.8626582103573
 20
6.814389148238603
 30
0.0
 11
12.92890058617667
 21
6.814389148238603
 31
0.0
  0
LINE
  5
1BF
330
23
100
AcDbEntity
  8
Visible (ANSI)
100
AcDbLine
 10
12.85900213005513
 20
6.814389148238603
 30
0.0
 11
12.8626582103573
 21
6.814389148238603
 31
0.0
  0
LINE
  5
1C0
330
23
100
AcDbEntity
  8
Visible (ANSI)
100
AcDbLine
 10
12.92890058617667
 20
6.814389148238603
 30
0.0
 11
12.92890058617667
 21
6.789389148238603
 31
0.0
  0
LINE
  5
1C1
330
23
100
AcDbEntity
  8
Visible (ANSI)
100
AcDbLine
 10
12.92890058617667
 20
6.789389148238603
 30
0.0
 11
12.88747186414833
 21
6.789389148238603
 31
0.0
  0
LINE
  5
1C2
330
23
100
AcDbEntity
  8
Visible (ANSI)
100
AcDbLine
 10
12.88747186414833
 20
6.789389148238603
 30
0.0
 11
12.88747186414833
 21
6.769389148238603
 31
0.0
  0
LINE
  5
1C3
330
23
100
AcDbEntity
  8
Visible (ANSI)
100
AcDbLine
 10
12.88747186414833
 20
6.769389148238603
 30
0.0
 11
12.91724824869757
 21
6.769389148238603
 31
0.0
  0
LINE
  5
1C4
330
23
100
AcDbEntity
  8
Visible (ANSI)
100
AcDbLine
 10
12.91724824869757
 20
6.769389148238603
 30
0.0
 11
12.91724824869757
 21
6.744389148238603
 31
0.0
  0
LINE
  5
1C5
330
23
100
AcDbEntity
  8
Visible (ANSI)
100
AcDbLine
 10
12.91724824869757
 20
6.744389148238603
 30
0.0
 11
12.88747186414833
 21
6.744389148238605
 31
0.0
  0
LINE
  5
1C6
330
23
100
AcDbEntity
  8
Visible (ANSI)
100
AcDbLine
 10
12.88747186414833
 20
6.744389148238605
 30
0.0
 11
12.88747186414833
 21
6.704389148238604
 31
0.0
  0
LINE
  5
1C7
330
23
100
AcDbEntity
  8
Visible (ANSI)
100
AcDbLine
 10
12.88747186414833
 20
6.704389148238604
 30
0.0
 11
12.8626582103573
 21
6.704389148238604
 31
0.0
  0
LINE
  5
1C8
330
23
100
AcDbEntity
  8
Visible (ANSI)
100
AcDbLine
 10
12.85900213005513
 20
6.704389148238604
 30
0.0
 11
12.8626582103573
 21
6.704389148238604
 31
0.0
  0
LINE
  5
1C9
330
23
100
AcDbEntity
  8
Visible (ANSI)
100
AcDbLine
 10
12.8626582103573
 20
6.704389148238604
 30
0.0
 11
12.8626582103573
 21
6.814389148238603
 31
0.0
  0
LINE
  5
1CA
330
23
100
AcDbEntity
  8
Visible (ANSI)
100
AcDbLine
 10
12.85900213005513
 20
6.704389148238604
 30
0.0
 11
12.85900213005513
 21
6.814389148238603
 31
0.0
  0
ELLIPSE
  5
1CB
330
23
100
AcDbEntity
  8
Visible (ANSI)
100
AcDbEllipse
 10
12.77829178746779
 20
6.758793347396537
 30
0.0
 11
0.0
 21
-0.055
 31
0.0
210
0.0
220
0.0
230
0.9999999999999998
 40
0.9925461516412857
 41
0.0
 42
6.283185307179586
  0
ELLIPSE
  5
1CC
330
23
100
AcDbEntity
  8
Visible (ANSI)
100
AcDbEllipse
 10
12.77463570716563
 20
6.758793347396537
 30
0.0
 11
0.0
 21
-0.055
 31
0.0
210
0.0
220
0.0
230
0.9999999999999998
 40
0.9925461516412855
 41
3.141592653589793
 42
6.283185307179586
  0
LINE
  5
1CD
330
23
100
AcDbEntity
  8
Visible (ANSI)
100
AcDbLine
 10
12.77463570716563
 20
6.813793347396535
 30
0.0
 11
12.77829178746779
 21
6.813793347396535
 31
0.0
  0
LINE
  5
1CE
330
23
100
AcDbEntity
  8
Visible (ANSI)
100
AcDbLine
 10
12.77463570716563
 20
6.703793347396536
 30
0.0
 11
12.77829178746779
 21
6.703793347396536
 31
0.0
  0
LINE
  5
1CF
330
23
100
AcDbEntity
  8
Visible (ANSI)
100
AcDbLine
 10
12.69523201503434
 20
6.181389148238603
 30
0.0
 11
12.69523201503434
 21
6.196389148238604
 31
0.0
  0
LINE
  5
1D0
330
23
100
AcDbEntity
  8
Visible (ANSI)
100
AcDbLine
 10
12.69523201503434
 20
6.181389148238603
 30
0.0
 11
14.19523201503434
 21
6.181389148238603
 31
0.0
  0
LINE
  5
1D1
330
23
100
AcDbEntity
  8
Visible (ANSI)
100
AcDbLine
 10
14.19523201503434
 20
6.196389148238604
 30
0.0
 11
14.19523201503434
 21
6.181389148238603
 31
0.0
  0
LINE
  5
1D2
330
23
100
AcDbEntity
  8
Visible (ANSI)
100
AcDbLine
 10
12.69523201503434
 20
6.525175944803007
 30
0.0
 11
12.69523201503434
 21
6.535782546520805
 31
0.0
  0
LINE
  5
1D3
330
23
100
AcDbEntity
  8
Visible (ANSI)
100
AcDbLine
 10
12.69523201503434
 20
8.138995749956402
 30
0.0
 11
12.69523201503434
 21
8.1496023516742
 31
0.0
  0
LINE
  5
1D4
330
23
100
AcDbEntity
  8
Visible (ANSI)
100
AcDbLine
 10
12.69523201503434
 20
8.478389148238603
 30
0.0
 11
12.69523201503434
 21
8.493389148238604
 31
0.0
  0
LINE
  5
1D5
330
23
100
AcDbEntity
  8
Visible (ANSI)
100
AcDbLine
 10
14.19523201503434
 20
6.535782546520805
 30
0.0
 11
14.19523201503434
 21
6.525175944803007
 31
0.0
  0
LINE
  5
1D6
330
23
100
AcDbEntity
  8
Visible (ANSI)
100
AcDbLine
 10
14.19523201503434
 20
8.493389148238604
 30
0.0
 11
14.19523201503434
 21
8.478389148238603
 31
0.0
  0
LINE
  5
1D7
330
23
100
AcDbEntity
  8
Visible (ANSI)
100
AcDbLine
 10
14.19523201503434
 20
8.1496023516742
 30
0.0
 11
14.19523201503434
 21
8.138995749956402
 31
0.0
  0
LINE
  5
1D8
330
23
100
AcDbEntity
  8
Visible (ANSI)
100
AcDbLine
 10
14.19523201503434
 20
8.493389148238604
 30
0.0
 11
12.69523201503434
 21
8.493389148238604
 31
0.0
  0
LINE
  5
1D9
330
23
100
AcDbEntity
  8
Visible (ANSI)
100
AcDbLine
 10
12.69523201503434
 20
6.525175944803007
 30
0.0
 11
12.69523201503434
 21
6.196389148238604
 31
0.0
  0
LINE
  5
1DA
330
23
100
AcDbEntity
  8
Visible (ANSI)
100
AcDbLine
 10
12.69523201503432
 20
6.594389148238603
 30
0.0
 11
12.69523201503434
 21
6.535782546520805
 31
0.0
  0
LINE
  5
1DB
330
23
100
AcDbEntity
  8
Visible (ANSI)
100
AcDbLine
 10
12.69523201503432
 20
6.681389148238603
 30
0.0
 11
12.69523201503432
 21
6.594389148238603
 31
0.0
  0
LINE
  5
1DC
330
23
100
AcDbEntity
  8
Visible (ANSI)
100
AcDbLine
 10
12.69523201503432
 20
7.843389148238603
 30
0.0
 11
12.69523201503432
 21
6.831389148238604
 31
0.0
  0
LINE
  5
1DD
330
23
100
AcDbEntity
  8
Visible (ANSI)
100
AcDbLine
 10
12.69523201503432
 20
8.080389148238603
 30
0.0
 11
12.69523201503432
 21
7.993389148238604
 31
0.0
  0
LINE
  5
1DE
330
23
100
AcDbEntity
  8
Visible (ANSI)
100
AcDbLine
 10
12.69523201503434
 20
8.138995749956402
 30
0.0
 11
12.69523201503432
 21
8.080389148238603
 31
0.0
  0
LINE
  5
1DF
330
23
100
AcDbEntity
  8
Visible (ANSI)
100
AcDbLine
 10
12.69523201503434
 20
8.478389148238603
 30
0.0
 11
12.69523201503434
 21
8.1496023516742
 31
0.0
  0
LINE
  5
1E0
330
23
100
AcDbEntity
  8
Visible (ANSI)
100
AcDbLine
 10
12.69523201503427
 20
9.533389148238603
 30
0.0
 11
12.69523201503427
 21
8.493389148238604
 31
0.0
  0
LINE
  5
1E1
330
23
100
AcDbEntity
  8
Visible (ANSI)
100
AcDbLine
 10
12.69523201503427
 20
6.181389148238603
 30
0.0
 11
12.69523201503427
 21
6.108389148238604
 31
0.0
  0
LINE
  5
1E2
330
23
100
AcDbEntity
  8
Visible (ANSI)
100
AcDbLine
 10
14.19523201503434
 20
6.535782546520805
 30
0.0
 11
14.19523201503432
 21
6.594389148238603
 31
0.0
  0
LINE
  5
1E3
330
23
100
AcDbEntity
  8
Visible (ANSI)
100
AcDbLine
 10
14.19523201503432
 20
6.594389148238603
 30
0.0
 11
13.72023201503433
 21
6.594389148238603
 31
0.0
  0
LINE
  5
1E4
330
23
100
AcDbEntity
  8
Visible (ANSI)
100
AcDbLine
 10
13.17023201503432
 20
6.594389148238603
 30
0.0
 11
12.69523201503432
 21
6.594389148238603
 31
0.0
  0
LINE
  5
1E5
330
23
100
AcDbEntity
  8
Visible (ANSI)
100
AcDbLine
 10
14.19523201503428
 20
6.108389148238604
 30
0.0
 11
14.19523201503428
 21
6.181389148238603
 31
0.0
  0
LINE
  5
1E6
330
23
100
AcDbEntity
  8
Visible (ANSI)
100
AcDbLine
 10
14.19523201503428
 20
8.493389148238604
 30
0.0
 11
14.19523201503428
 21
9.533389148238603
 31
0.0
  0
LINE
  5
1E7
330
23
100
AcDbEntity
  8
Visible (ANSI)
100
AcDbLine
 10
14.19523201503434
 20
8.1496023516742
 30
0.0
 11
14.19523201503434
 21
8.478389148238603
 31
0.0
  0
LINE
  5
1E8
330
23
100
AcDbEntity
  8
Visible (ANSI)
100
AcDbLine
 10
14.19523201503432
 20
8.080389148238603
 30
0.0
 11
14.19523201503434
 21
8.138995749956402
 31
0.0
  0
LINE
  5
1E9
330
23
100
AcDbEntity
  8
Visible (ANSI)
100
AcDbLine
 10
14.19523201503432
 20
7.993389148238604
 30
0.0
 11
14.19523201503432
 21
8.080389148238603
 31
0.0
  0
LINE
  5
1EA
330
23
100
AcDbEntity
  8
Visible (ANSI)
100
AcDbLine
 10
14.19523201503432
 20
6.831389148238604
 30
0.0
 11
14.19523201503432
 21
7.843389148238603
 31
0.0
  0
LINE
  5
1EB
330
23
100
AcDbEntity
  8
Visible (ANSI)
100
AcDbLine
 10
14.19523201503432
 20
6.594389148238603
 30
0.0
 11
14.19523201503432
 21
6.681389148238603
 31
0.0
  0
LINE
  5
1EC
330
23
100
AcDbEntity
  8
Visible (ANSI)
100
AcDbLine
 10
14.19523201503434
 20
6.196389148238604
 30
0.0
 11
14.19523201503434
 21
6.525175944803007
 31
0.0
  0
LINE
  5
1ED
330
23
100
AcDbEntity
  8
Visible (ANSI)
100
AcDbLine
 10
14.15523201503407
 20
11.3683891482386
 30
0.0
 11
13.97523201503407
 21
11.3683891482386
 31
0.0
  0
LINE
  5
1EE
330
23
100
AcDbEntity
  8
Visible (ANSI)
100
AcDbLine
 10
14.19523201503426
 20
10.9383891482386
 30
0.0
 11
14.19523201503428
 21
10.6683891482386
 31
0.0
  0
LINE
  5
1EF
330
23
100
AcDbEntity
  8
Visible (ANSI)
100
AcDbLine
 10
14.19523201503428
 20
4.953389148238602
 30
0.0
 11
14.19523201503428
 21
5.708389148238603
 31
0.0
  0
LINE
  5
1F0
330
23
100
AcDbEntity
  8
Visible (ANSI)
100
AcDbLine
 10
14.19523201503428
 20
4.953389148238602
 30
0.0
 11
14.19523201503426
 21
4.683389148238602
 31
0.0
  0
LINE
  5
1F1
330
23
100
AcDbEntity
  8
Visible (ANSI)
100
AcDbLine
 10
12.91523201503407
 20
4.253389148238602
 30
0.0
 11
12.73523201503407
 21
4.253389148238602
 31
0.0
  0
LINE
  5
1F2
330
23
100
AcDbEntity
  8
Visible (ANSI)
100
AcDbLine
 10
12.69523201503426
 20
4.683389148238602
 30
0.0
 11
12.69523201503427
 21
4.953389148238602
 31
0.0
  0
LINE
  5
1F3
330
23
100
AcDbEntity
  8
Visible (ANSI)
100
AcDbLine
 10
12.69523201503427
 20
10.6683891482386
 30
0.0
 11
12.69523201503427
 21
9.933389148238605
 31
0.0
  0
LINE
  5
1F4
330
23
100
AcDbEntity
  8
Visible (ANSI)
100
AcDbLine
 10
12.69523201503427
 20
10.6683891482386
 30
0.0
 11
12.69523201503426
 21
10.9383891482386
 31
0.0
  0
LINE
  5
1F5
330
23
100
AcDbEntity
  8
Visible (ANSI)
100
AcDbLine
 10
14.15523201503407
 20
4.253389148238602
 30
0.0
 11
13.97523201503407
 21
4.253389148238602
 31
0.0
  0
LINE
  5
1F6
330
23
100
AcDbEntity
  8
Visible (ANSI)
100
AcDbLine
 10
12.69523201503427
 20
5.708389148238604
 30
0.0
 11
12.69523201503427
 21
4.953389148238602
 31
0.0
  0
LINE
  5
1F7
330
23
100
AcDbEntity
  8
Visible (ANSI)
100
AcDbLine
 10
12.91523201503407
 20
11.3683891482386
 30
0.0
 11
12.73523201503407
 21
11.3683891482386
 31
0.0
  0
LINE
  5
1F8
330
23
100
AcDbEntity
  8
Visible (ANSI)
100
AcDbLine
 10
14.19523201503432
 20
8.080389148238603
 30
0.0
 11
13.77023201503464
 21
8.080389148238603
 31
0.0
  0
LINE
  5
1F9
330
23
100
AcDbEntity
  8
Visible (ANSI)
100
AcDbLine
 10
13.12023201503461
 20
8.080389148238603
 30
0.0
 11
12.69523201503432
 21
8.080389148238603
 31
0.0
  0
LINE
  5
1FA
330
23
100
AcDbEntity
  8
Visible (ANSI)
100
AcDbLine
 10
14.19523201503428
 20
9.933389148238605
 30
0.0
 11
14.19523201503428
 21
10.6683891482386
 31
0.0
  0
LINE
  5
1FB
330
23
100
AcDbEntity
  8
Visible (ANSI)
100
AcDbLine
 10
12.69523201503432
 20
6.831389148238604
 30
0.0
 11
12.69523201503432
 21
6.681389148238603
 31
0.0
  0
LINE
  5
1FC
330
23
100
AcDbEntity
  8
Visible (ANSI)
100
AcDbLine
 10
12.69523201503432
 20
7.993389148238604
 30
0.0
 11
12.69523201503432
 21
7.843389148238603
 31
0.0
  0
LINE
  5
1FD
330
23
100
AcDbEntity
  8
Visible (ANSI)
100
AcDbLine
 10
12.69523201503432
 20
6.831389148238604
 30
0.0
 11
13.07023201503432
 21
6.831389148238604
 31
0.0
  0
LINE
  5
1FE
330
23
100
AcDbEntity
  8
Visible (ANSI)
100
AcDbLine
 10
13.07793273013652
 20
6.681389148238603
 30
0.0
 11
12.69523201503432
 21
6.681389148238603
 31
0.0
  0
LINE
  5
1FF
330
23
100
AcDbEntity
  8
Visible (ANSI)
100
AcDbLine
 10
13.10282855019893
 20
6.681389148238603
 30
0.0
 11
13.07793273013652
 21
6.681389148238603
 31
0.0
  0
ELLIPSE
  5
200
330
23
100
AcDbEntity
  8
Visible (ANSI)
100
AcDbEllipse
 10
13.17023201503431
 20
6.794133170904792
 30
0.0
 11
-0.0168685545543208
 21
-0.1414659746322093
 31
0.0
210
0.0
220
0.0
230
1.0
 40
0.6967540571477158
 41
4.881884932361732
 42
5.71302416290509
  0
LINE
  5
201
330
23
100
AcDbEntity
  8
Visible (ANSI)
100
AcDbLine
 10
13.07023201503431
 20
6.831389148238604
 30
0.0
 11
13.07023201503431
 21
6.781854714814502
 31
0.0
  0
LINE
  5
202
330
23
100
AcDbEntity
  8
Visible (ANSI)
100
AcDbLine
 10
12.69523201503432
 20
7.993389148238604
 30
0.0
 11
13.07793273013652
 21
7.993389148238604
 31
0.0
  0
LINE
  5
203
330
23
100
AcDbEntity
  8
Visible (ANSI)
100
AcDbLine
 10
13.07793273013652
 20
7.993389148238604
 30
0.0
 11
13.10282855019893
 21
7.993389148238604
 31
0.0
  0
LINE
  5
204
330
23
100
AcDbEntity
  8
Visible (ANSI)
100
AcDbLine
 10
13.07023201503432
 20
7.843389148238603
 30
0.0
 11
12.69523201503432
 21
7.843389148238603
 31
0.0
  0
LINE
  5
205
330
23
100
AcDbEntity
  8
Visible (ANSI)
100
AcDbLine
 10
13.07023201503431
 20
7.892923581662705
 30
0.0
 11
13.07023201503431
 21
7.843389148238603
 31
0.0
  0
ELLIPSE
  5
206
330
23
100
AcDbEntity
  8
Visible (ANSI)
100
AcDbEllipse
 10
13.17023201503431
 20
7.880645125572415
 30
0.0
 11
-0.0168685545543207
 21
0.1414659746322096
 31
0.0
210
0.0
220
0.0
230
0.9999999999999998
 40
0.6967540571477141
 41
0.5701611442744757
 42
1.401300374817844
  0
LINE
  5
207
330
23
100
AcDbEntity
  8
Visible (ANSI)
100
AcDbLine
 10
12.69523201503419
 20
9.533389148238603
 30
0.0
 11
12.69523201503419
 21
9.628389148238605
 31
0.0
  0
LINE
  5
208
330
23
100
AcDbEntity
  8
Visible (ANSI)
100
AcDbLine
 10
12.69523201503419
 20
6.013389148238604
 30
0.0
 11
12.69523201503419
 21
6.108389148238604
 31
0.0
  0
LINE
  5
209
330
23
100
AcDbEntity
  8
Visible (ANSI)
100
AcDbLine
 10
14.19523201503419
 20
6.108389148238604
 30
0.0
 11
14.19523201503419
 21
6.013389148238604
 31
0.0
  0
LINE
  5
20A
330
23
100
AcDbEntity
  8
Visible (ANSI)
100
AcDbLine
 10
14.19523201503419
 20
9.628389148238605
 30
0.0
 11
14.19523201503419
 21
9.533389148238603
 31
0.0
  0
LINE
  5
20B
330
23
100
AcDbEntity
  8
Visible (ANSI)
100
AcDbLine
 10
14.19523201503419
 20
5.803389148238604
 30
0.0
 11
14.19523201503419
 21
5.71371477418531
 31
0.0
  0
ARC
  5
20C
330
23
100
AcDbEntity
  8
Visible (ANSI)
100
AcDbCircle
 10
14.19523201503419
 20
5.908389148238604
 30
0.0
 40
0.105
100
AcDbArc
 50
90.0
 51
270.0
  0
ARC
  5
20D
330
23
100
AcDbEntity
  8
Visible (ANSI)
100
AcDbCircle
 10
14.19523201503419
 20
9.733389148238604
 30
0.0
 40
0.105
100
AcDbArc
 50
90.0
 51
270.0
  0
LINE
  5
20E
330
23
100
AcDbEntity
  8
Visible (ANSI)
100
AcDbLine
 10
14.19523201503419
 20
9.928063522291896
 30
0.0
 11
14.19523201503419
 21
9.838389148238604
 31
0.0
  0
ARC
  5
20F
330
23
100
AcDbEntity
  8
Visible (ANSI)
100
AcDbCircle
 10
12.69523201503419
 20
5.908389148238604
 30
0.0
 40
0.105
100
AcDbArc
 50
270.0
 51
90.0
  0
LINE
  5
210
330
23
100
AcDbEntity
  8
Visible (ANSI)
100
AcDbLine
 10
12.69523201503419
 20
5.713714774185311
 30
0.0
 11
12.69523201503419
 21
5.803389148238604
 31
0.0
  0
LINE
  5
211
330
23
100
AcDbEntity
  8
Visible (ANSI)
100
AcDbLine
 10
12.69523201503419
 20
9.838389148238604
 30
0.0
 11
12.69523201503419
 21
9.928063522291896
 31
0.0
  0
ARC
  5
212
330
23
100
AcDbEntity
  8
Visible (ANSI)
100
AcDbCircle
 10
12.69523201503419
 20
9.733389148238604
 30
0.0
 40
0.105
100
AcDbArc
 50
270.0
 51
90.0
  0
LINE
  5
213
330
23
100
AcDbEntity
  8
Visible (ANSI)
100
AcDbLine
 10
13.93523201503426
 20
9.533389148238603
 30
0.0
 11
13.93523201503426
 21
9.933389148238605
 31
0.0
  0
LINE
  5
214
330
23
100
AcDbEntity
  8
Visible (ANSI)
100
AcDbLine
 10
12.95523201503427
 20
9.933389148238605
 30
0.0
 11
12.95523201503427
 21
9.533389148238603
 31
0.0
  0
LINE
  5
215
330
23
100
AcDbEntity
  8
Visible (ANSI)
100
AcDbLine
 10
13.93523201503426
 20
5.708389148238603
 30
0.0
 11
13.93523201503426
 21
6.108389148238604
 31
0.0
  0
LINE
  5
216
330
23
100
AcDbEntity
  8
Visible (ANSI)
100
AcDbLine
 10
12.95523201503427
 20
6.108389148238604
 30
0.0
 11
12.95523201503427
 21
5.708389148238603
 31
0.0
  0
LINE
  5
217
330
23
100
AcDbEntity
  8
Visible (ANSI)
100
AcDbLine
 10
13.17023201503424
 20
6.887389148238603
 30
0.0
 11
13.72023201503423
 21
6.887389148238603
 31
0.0
  0
LINE
  5
218
330
23
100
AcDbEntity
  8
Visible (ANSI)
100
AcDbLine
 10
13.82023201503433
 20
7.843389148238603
 30
0.0
 11
13.82023201503433
 21
7.337389148238603
 31
0.0
  0
LINE
  5
219
330
23
100
AcDbEntity
  8
Visible (ANSI)
100
AcDbLine
 10
13.82023201503433
 20
7.337389148238603
 30
0.0
 11
13.82023201503433
 21
6.831389148238604
 31
0.0
  0
LINE
  5
21A
330
23
100
AcDbEntity
  8
Visible (ANSI)
100
AcDbLine
 10
13.07023201503432
 20
6.831389148238604
 30
0.0
 11
13.07023201503432
 21
7.337389148238603
 31
0.0
  0
LINE
  5
21B
330
23
100
AcDbEntity
  8
Visible (ANSI)
100
AcDbLine
 10
13.07023201503432
 20
7.337389148238603
 30
0.0
 11
13.07023201503432
 21
7.843389148238603
 31
0.0
  0
LINE
  5
21C
330
23
100
AcDbEntity
  8
Visible (ANSI)
100
AcDbLine
 10
14.19523201503432
 20
7.843389148238603
 30
0.0
 11
14.19523201503432
 21
7.993389148238604
 31
0.0
  0
LINE
  5
21D
330
23
100
AcDbEntity
  8
Visible (ANSI)
100
AcDbLine
 10
14.19523201503432
 20
6.681389148238603
 30
0.0
 11
14.19523201503432
 21
6.831389148238604
 31
0.0
  0
LINE
  5
21E
330
23
100
AcDbEntity
  8
Visible (ANSI)
100
AcDbLine
 10
14.19523201503432
 20
7.843389148238603
 30
0.0
 11
13.82023201503433
 21
7.843389148238603
 31
0.0
  0
LINE
  5
21F
330
23
100
AcDbEntity
  8
Visible (ANSI)
100
AcDbLine
 10
13.81253129993213
 20
7.993389148238604
 30
0.0
 11
14.19523201503432
 21
7.993389148238604
 31
0.0
  0
LINE
  5
220
330
23
100
AcDbEntity
  8
Visible (ANSI)
100
AcDbLine
 10
13.78763547986969
 20
7.993389148238604
 30
0.0
 11
13.81253129993213
 21
7.993389148238604
 31
0.0
  0
ELLIPSE
  5
221
330
23
100
AcDbEntity
  8
Visible (ANSI)
100
AcDbEllipse
 10
13.72023201503431
 20
7.880645125572415
 30
0.0
 11
0.0168685545543242
 21
0.1414659746322093
 31
0.0
210
0.0
220
0.0
230
1.0
 40
0.6967540571477632
 41
4.881884932361746
 42
5.713024162905128
  0
LINE
  5
222
330
23
100
AcDbEntity
  8
Visible (ANSI)
100
AcDbLine
 10
13.82023201503431
 20
7.843389148238603
 30
0.0
 11
13.82023201503431
 21
7.892923581662705
 31
0.0
  0
LINE
  5
223
330
23
100
AcDbEntity
  8
Visible (ANSI)
100
AcDbLine
 10
14.19523201503432
 20
6.681389148238603
 30
0.0
 11
13.81253129993213
 21
6.681389148238603
 31
0.0
  0
LINE
  5
224
330
23
100
AcDbEntity
  8
Visible (ANSI)
100
AcDbLine
 10
13.81253129993213
 20
6.681389148238603
 30
0.0
 11
13.78763547986969
 21
6.681389148238603
 31
0.0
  0
LINE
  5
225
330
23
100
AcDbEntity
  8
Visible (ANSI)
100
AcDbLine
 10
13.82023201503433
 20
6.831389148238604
 30
0.0
 11
14.19523201503432
 21
6.831389148238604
 31
0.0
  0
LINE
  5
226
330
23
100
AcDbEntity
  8
Visible (ANSI)
100
AcDbLine
 10
13.82023201503431
 20
6.781854714814502
 30
0.0
 11
13.82023201503431
 21
6.831389148238604
 31
0.0
  0
ELLIPSE
  5
227
330
23
100
AcDbEntity
  8
Visible (ANSI)
100
AcDbEllipse
 10
13.72023201503431
 20
6.794133170904792
 30
0.0
 11
0.0168685545543242
 21
-0.141465974632209
 31
0.0
210
0.0
220
0.0
230
0.9999999999999998
 40
0.6967540571477649
 41
0.5701611442744855
 42
1.401300374817838
  0
LINE
  5
228
330
23
100
AcDbEntity
  8
Visible (ANSI)
100
AcDbLine
 10
14.05523201503419
 20
5.708389148238603
 30
0.0
 11
14.05523201503419
 21
5.71371477418531
 31
0.0
  0
LINE
  5
229
330
23
100
AcDbEntity
  8
Visible (ANSI)
100
AcDbLine
 10
14.19523201503419
 20
5.71371477418531
 30
0.0
 11
14.19523201503419
 21
5.708389148238604
 31
0.0
  0
LINE
  5
22A
330
23
100
AcDbEntity
  8
Visible (ANSI)
100
AcDbLine
 10
14.05523201503419
 20
5.71371477418531
 30
0.0
 11
14.19523201503419
 21
5.71371477418531
 31
0.0
  0
LINE
  5
22B
330
23
100
AcDbEntity
  8
Visible (ANSI)
100
AcDbLine
 10
14.05523201503419
 20
9.928063522291896
 30
0.0
 11
14.05523201503419
 21
9.933389148238605
 31
0.0
  0
LINE
  5
22C
330
23
100
AcDbEntity
  8
Visible (ANSI)
100
AcDbLine
 10
14.19523201503419
 20
9.928063522291896
 30
0.0
 11
14.05523201503419
 21
9.928063522291896
 31
0.0
  0
LINE
  5
22D
330
23
100
AcDbEntity
  8
Visible (ANSI)
100
AcDbLine
 10
14.19523201503419
 20
9.933389148238605
 30
0.0
 11
14.19523201503419
 21
9.928063522291896
 31
0.0
  0
LINE
  5
22E
330
23
100
AcDbEntity
  8
Visible (ANSI)
100
AcDbLine
 10
12.69523201503427
 20
9.933389148238605
 30
0.0
 11
14.19523201503428
 21
9.933389148238605
 31
0.0
  0
LINE
  5
22F
330
23
100
AcDbEntity
  8
Visible (ANSI)
100
AcDbLine
 10
14.19523201503428
 20
5.708389148238603
 30
0.0
 11
12.69523201503427
 21
5.708389148238604
 31
0.0
  0
CIRCLE
  5
230
330
23
100
AcDbEntity
  8
Visible (ANSI)
100
AcDbCircle
 10
13.44523201503426
 20
5.938389148238604
 30
0.0
 40
0.1
  0
LINE
  5
231
330
23
100
AcDbEntity
  8
Visible (ANSI)
100
AcDbLine
 10
12.69523201503427
 20
6.108389148238604
 30
0.0
 11
14.19523201503428
 21
6.108389148238604
 31
0.0
  0
LINE
  5
232
330
23
100
AcDbEntity
  8
Visible (ANSI)
100
AcDbLine
 10
14.19523201503428
 20
9.533389148238603
 30
0.0
 11
12.69523201503427
 21
9.533389148238603
 31
0.0
  0
LINE
  5
233
330
23
100
AcDbEntity
  8
Visible (ANSI)
100
AcDbLine
 10
14.15523201503426
 20
4.683389148238602
 30
0.0
 11
14.15523201503407
 21
4.253389148238601
 31
0.0
  0
LINE
  5
234
330
23
100
AcDbEntity
  8
Visible (ANSI)
100
AcDbLine
 10
14.19523201503426
 20
10.9383891482386
 30
0.0
 11
14.15523201503426
 21
10.9383891482386
 31
0.0
  0
LINE
  5
235
330
23
100
AcDbEntity
  8
Visible (ANSI)
100
AcDbLine
 10
14.15523201503407
 20
11.3683891482386
 30
0.0
 11
14.15523201503426
 21
10.9383891482386
 31
0.0
  0
LINE
  5
236
330
23
100
AcDbEntity
  8
Visible (ANSI)
100
AcDbLine
 10
14.15523201503426
 20
4.683389148238602
 30
0.0
 11
14.19523201503426
 21
4.683389148238602
 31
0.0
  0
LINE
  5
237
330
23
100
AcDbEntity
  8
Visible (ANSI)
100
AcDbLine
 10
14.19523201503393
 20
11.2783891482386
 30
0.0
 11
14.19523201503393
 21
11.0783891482386
 31
0.0
  0
LINE
  5
238
330
23
100
AcDbEntity
  8
Visible (ANSI)
100
AcDbLine
 10
14.19523201503393
 20
4.543389148238602
 30
0.0
 11
14.19523201503393
 21
4.343389148238602
 31
0.0
  0
LINE
  5
239
330
23
100
AcDbEntity
  8
Visible (ANSI)
100
AcDbLine
 10
14.15523201503393
 20
11.2783891482386
 30
0.0
 11
14.19523201503393
 21
11.2783891482386
 31
0.0
  0
LINE
  5
23A
330
23
100
AcDbEntity
  8
Visible (ANSI)
100
AcDbLine
 10
14.15523201503393
 20
11.0783891482386
 30
0.0
 11
14.19523201503393
 21
11.0783891482386
 31
0.0
  0
LINE
  5
23B
330
23
100
AcDbEntity
  8
Visible (ANSI)
100
AcDbLine
 10
14.15523201503393
 20
4.543389148238602
 30
0.0
 11
14.19523201503393
 21
4.543389148238602
 31
0.0
  0
LINE
  5
23C
330
23
100
AcDbEntity
  8
Visible (ANSI)
100
AcDbLine
 10
14.15523201503393
 20
4.343389148238602
 30
0.0
 11
14.19523201503393
 21
4.343389148238602
 31
0.0
  0
LINE
  5
23D
330
23
100
AcDbEntity
  8
Visible (ANSI)
100
AcDbLine
 10
13.97523201503426
 20
10.9933891482386
 30
0.0
 11
13.97523201503407
 21
11.3683891482386
 31
0.0
  0
LINE
  5
23E
330
23
100
AcDbEntity
  8
Visible (ANSI)
100
AcDbLine
 10
13.97523201503425
 20
10.9933891482386
 30
0.0
 11
13.83523201503425
 21
10.9933891482386
 31
0.0
  0
LINE
  5
23F
330
23
100
AcDbEntity
  8
Visible (ANSI)
100
AcDbLine
 10
13.83523201503428
 20
10.6683891482386
 30
0.0
 11
13.83523201503425
 21
10.9933891482386
 31
0.0
  0
LINE
  5
240
330
23
100
AcDbEntity
  8
Visible (ANSI)
100
AcDbLine
 10
12.91523201503426
 20
4.628389148238603
 30
0.0
 11
12.91523201503407
 21
4.253389148238601
 31
0.0
  0
LINE
  5
241
330
23
100
AcDbEntity
  8
Visible (ANSI)
100
AcDbLine
 10
12.91523201503425
 20
4.628389148238603
 30
0.0
 11
13.05523201503425
 21
4.628389148238603
 31
0.0
  0
LINE
  5
242
330
23
100
AcDbEntity
  8
Visible (ANSI)
100
AcDbLine
 10
13.05523201503428
 20
4.953389148238601
 30
0.0
 11
13.05523201503425
 21
4.628389148238603
 31
0.0
  0
LINE
  5
243
330
23
100
AcDbEntity
  8
Visible (ANSI)
100
AcDbLine
 10
13.83523201503425
 20
4.628389148238603
 30
0.0
 11
13.97523201503425
 21
4.628389148238603
 31
0.0
  0
LINE
  5
244
330
23
100
AcDbEntity
  8
Visible (ANSI)
100
AcDbLine
 10
13.83523201503428
 20
10.6683891482386
 30
0.0
 11
13.83523201503428
 21
10.6183891482386
 31
0.0
  0
ARC
  5
245
330
23
100
AcDbEntity
  8
Visible (ANSI)
100
AcDbCircle
 10
13.44523201503428
 20
10.6183891482386
 30
0.0
 40
0.39
100
AcDbArc
 50
180.0
 51
0.0
  0
LINE
  5
246
330
23
100
AcDbEntity
  8
Visible (ANSI)
100
AcDbLine
 10
13.05523201503425
 20
10.9933891482386
 30
0.0
 11
13.05523201503428
 21
10.6683891482386
 31
0.0
  0
LINE
  5
247
330
23
100
AcDbEntity
  8
Visible (ANSI)
100
AcDbLine
 10
13.05523201503428
 20
10.6183891482386
 30
0.0
 11
13.05523201503428
 21
10.6683891482386
 31
0.0
  0
LINE
  5
248
330
23
100
AcDbEntity
  8
Visible (ANSI)
100
AcDbLine
 10
13.05523201503425
 20
10.9933891482386
 30
0.0
 11
12.91523201503425
 21
10.9933891482386
 31
0.0
  0
LINE
  5
249
330
23
100
AcDbEntity
  8
Visible (ANSI)
100
AcDbLine
 10
13.05523201503428
 20
4.953389148238602
 30
0.0
 11
13.05523201503428
 21
5.003389148238603
 31
0.0
  0
LINE
  5
24A
330
23
100
AcDbEntity
  8
Visible (ANSI)
100
AcDbLine
 10
13.83523201503425
 20
4.628389148238603
 30
0.0
 11
13.83523201503428
 21
4.953389148238602
 31
0.0
  0
LINE
  5
24B
330
23
100
AcDbEntity
  8
Visible (ANSI)
100
AcDbLine
 10
13.83523201503428
 20
5.003389148238603
 30
0.0
 11
13.83523201503428
 21
4.953389148238602
 31
0.0
  0
ARC
  5
24C
330
23
100
AcDbEntity
  8
Visible (ANSI)
100
AcDbCircle
 10
13.44523201503428
 20
5.003389148238602
 30
0.0
 40
0.39
100
AcDbArc
 50
0.0
 51
180.0
  0
LINE
  5
24D
330
23
100
AcDbEntity
  8
Visible (ANSI)
100
AcDbLine
 10
13.97523201503407
 20
4.253389148238602
 30
0.0
 11
13.97523201503426
 21
4.628389148238603
 31
0.0
  0
LINE
  5
24E
330
23
100
AcDbEntity
  8
Visible (ANSI)
100
AcDbLine
 10
12.91523201503407
 20
11.3683891482386
 30
0.0
 11
12.91523201503426
 21
10.9933891482386
 31
0.0
  0
LINE
  5
24F
330
23
100
AcDbEntity
  8
Visible (ANSI)
100
AcDbLine
 10
12.73523201503407
 20
4.253389148238602
 30
0.0
 11
12.73523201503426
 21
4.683389148238602
 31
0.0
  0
LINE
  5
250
330
23
100
AcDbEntity
  8
Visible (ANSI)
100
AcDbLine
 10
12.69523201503426
 20
4.683389148238602
 30
0.0
 11
12.73523201503426
 21
4.683389148238602
 31
0.0
  0
LINE
  5
251
330
23
100
AcDbEntity
  8
Visible (ANSI)
100
AcDbLine
 10
12.73523201503426
 20
10.9383891482386
 30
0.0
 11
12.73523201503407
 21
11.3683891482386
 31
0.0
  0
LINE
  5
252
330
23
100
AcDbEntity
  8
Visible (ANSI)
100
AcDbLine
 10
12.73523201503426
 20
10.9383891482386
 30
0.0
 11
12.69523201503426
 21
10.9383891482386
 31
0.0
  0
LINE
  5
253
330
23
100
AcDbEntity
  8
Visible (ANSI)
100
AcDbLine
 10
12.82023201503419
 20
5.713714774185311
 30
0.0
 11
12.82023201503419
 21
5.708389148238603
 31
0.0
  0
LINE
  5
254
330
23
100
AcDbEntity
  8
Visible (ANSI)
100
AcDbLine
 10
12.69523201503419
 20
5.713714774185311
 30
0.0
 11
12.82023201503419
 21
5.713714774185311
 31
0.0
  0
LINE
  5
255
330
23
100
AcDbEntity
  8
Visible (ANSI)
100
AcDbLine
 10
12.69523201503419
 20
5.708389148238604
 30
0.0
 11
12.69523201503419
 21
5.713714774185311
 31
0.0
  0
LINE
  5
256
330
23
100
AcDbEntity
  8
Visible (ANSI)
100
AcDbLine
 10
12.82023201503419
 20
9.933389148238605
 30
0.0
 11
12.82023201503419
 21
9.928063522291896
 31
0.0
  0
LINE
  5
257
330
23
100
AcDbEntity
  8
Visible (ANSI)
100
AcDbLine
 10
12.69523201503419
 20
9.928063522291896
 30
0.0
 11
12.69523201503419
 21
9.933389148238603
 31
0.0
  0
LINE
  5
258
330
23
100
AcDbEntity
  8
Visible (ANSI)
100
AcDbLine
 10
12.82023201503419
 20
9.928063522291896
 30
0.0
 11
12.69523201503419
 21
9.928063522291896
 31
0.0
  0
LINE
  5
259
330
23
100
AcDbEntity
  8
Visible (ANSI)
100
AcDbLine
 10
12.69523201503393
 20
11.0783891482386
 30
0.0
 11
12.69523201503393
 21
11.2783891482386
 31
0.0
  0
LINE
  5
25A
330
23
100
AcDbEntity
  8
Visible (ANSI)
100
AcDbLine
 10
12.69523201503393
 20
4.343389148238602
 30
0.0
 11
12.69523201503393
 21
4.543389148238602
 31
0.0
  0
LINE
  5
25B
330
23
100
AcDbEntity
  8
Visible (ANSI)
100
AcDbLine
 10
12.73523201503393
 20
11.0783891482386
 30
0.0
 11
12.69523201503393
 21
11.0783891482386
 31
0.0
  0
LINE
  5
25C
330
23
100
AcDbEntity
  8
Visible (ANSI)
100
AcDbLine
 10
12.73523201503393
 20
11.2783891482386
 30
0.0
 11
12.69523201503393
 21
11.2783891482386
 31
0.0
  0
LINE
  5
25D
330
23
100
AcDbEntity
  8
Visible (ANSI)
100
AcDbLine
 10
12.73523201503393
 20
4.343389148238602
 30
0.0
 11
12.69523201503393
 21
4.343389148238602
 31
0.0
  0
LINE
  5
25E
330
23
100
AcDbEntity
  8
Visible (ANSI)
100
AcDbLine
 10
12.73523201503393
 20
4.543389148238602
 30
0.0
 11
12.69523201503393
 21
4.543389148238602
 31
0.0
  0
LINE
  5
25F
330
23
100
AcDbEntity
  8
Visible (ANSI)
100
AcDbLine
 10
13.05523201503375
 20
10.9933891482386
 30
0.0
 11
13.05523201503375
 21
11.1683891482386
 31
0.0
  0
LINE
  5
260
330
23
100
AcDbEntity
  8
Visible (ANSI)
100
AcDbLine
 10
13.83523201503376
 20
10.9933891482386
 30
0.0
 11
13.83523201503376
 21
11.1683891482386
 31
0.0
  0
LINE
  5
261
330
23
100
AcDbEntity
  8
Visible (ANSI)
100
AcDbLine
 10
13.83523201503376
 20
11.1683891482386
 30
0.0
 11
13.05523201503375
 21
11.1683891482386
 31
0.0
  0
LINE
  5
262
330
23
100
AcDbEntity
  8
Visible (ANSI)
100
AcDbLine
 10
13.85023201503374
 20
4.628389148238603
 30
0.0
 11
13.85023201503374
 21
4.453389148238603
 31
0.0
  0
LINE
  5
263
330
23
100
AcDbEntity
  8
Visible (ANSI)
100
AcDbLine
 10
13.04023201503374
 20
4.628389148238603
 30
0.0
 11
13.04023201503374
 21
4.453389148238603
 31
0.0
  0
LINE
  5
264
330
23
100
AcDbEntity
  8
Visible (ANSI)
100
AcDbLine
 10
13.04023201503374
 20
4.453389148238603
 30
0.0
 11
13.85023201503374
 21
4.453389148238603
 31
0.0
  0
CIRCLE
  5
265
330
23
100
AcDbEntity
  8
Visible (ANSI)
100
AcDbCircle
 10
13.44523201503428
 20
8.738389148238603
 30
0.0
 40
0.1
  0
ELLIPSE
  5
266
330
23
100
AcDbEntity
  8
Visible (ANSI)
100
AcDbEllipse
 10
12.80645226133863
 20
7.918629825390833
 30
0.0
 11
0.0
 21
-0.0339734186156051
 31
0.0
210
0.0
220
0.0
230
0.9999999999999998
 40
0.9925461516412859
 41
0.0542386320447585
 42
3.087354021545035
  0
ELLIPSE
  5
267
330
23
100
AcDbEntity
  8
Visible (ANSI)
100
AcDbEllipse
 10
12.81010834164079
 20
7.918629825390833
 30
0.0
 11
0.0
 21
-0.0339734186156051
 31
0.0
210
0.0
220
0.0
230
0.9999999999999998
 40
0.9925461516412859
 41
0.0
 42
6.283185307179586
  0
LINE
  5
268
330
23
100
AcDbEntity
  8
Visible (ANSI)
100
AcDbLine
 10
12.89702056755161
 20
7.974954045748837
 30
0.0
 11
12.927507557779
 21
7.974954045748837
 31
0.0
  0
LINE
  5
269
330
23
100
AcDbEntity
  8
Visible (ANSI)
100
AcDbLine
 10
12.89336448724945
 20
7.974954045748837
 30
0.0
 11
12.89702056755161
 21
7.974954045748837
 31
0.0
  0
LINE
  5
26A
330
23
100
AcDbEntity
  8
Visible (ANSI)
100
AcDbLine
 10
12.927507557779
 20
7.974954045748837
 30
0.0
 11
12.98564812196173
 21
7.88370880876887
 31
0.0
  0
LINE
  5
26B
330
23
100
AcDbEntity
  8
Visible (ANSI)
100
AcDbLine
 10
12.98564812196173
 20
7.88370880876887
 30
0.0
 11
12.98564812196173
 21
7.974954045748837
 31
0.0
  0
LINE
  5
26C
330
23
100
AcDbEntity
  8
Visible (ANSI)
100
AcDbLine
 10
12.98199204165957
 20
7.974954045748837
 30
0.0
 11
12.98564812196173
 21
7.974954045748837
 31
0.0
  0
LINE
  5
26D
330
23
100
AcDbEntity
  8
Visible (ANSI)
100
AcDbLine
 10
12.98199204165957
 20
7.889446625700612
 30
0.0
 11
12.98199204165957
 21
7.974954045748837
 31
0.0
  0
LINE
  5
26E
330
23
100
AcDbEntity
  8
Visible (ANSI)
100
AcDbLine
 10
12.98564812196173
 20
7.974954045748837
 30
0.0
 11
13.01542450651097
 21
7.974954045748837
 31
0.0
  0
LINE
  5
26F
330
23
100
AcDbEntity
  8
Visible (ANSI)
100
AcDbLine
 10
13.01542450651097
 20
7.974954045748837
 30
0.0
 11
13.01542450651097
 21
7.861054218389303
 31
0.0
  0
LINE
  5
270
330
23
100
AcDbEntity
  8
Visible (ANSI)
100
AcDbLine
 10
13.01542450651097
 20
7.861054218389303
 30
0.0
 11
12.96469918068632
 21
7.861054218389303
 31
0.0
  0
LINE
  5
271
330
23
100
AcDbEntity
  8
Visible (ANSI)
100
AcDbLine
 10
12.96104310038415
 20
7.861054218389303
 30
0.0
 11
12.96469918068632
 21
7.861054218389303
 31
0.0
  0
LINE
  5
272
330
23
100
AcDbEntity
  8
Visible (ANSI)
100
AcDbLine
 10
12.96469918068632
 20
7.861054218389303
 30
0.0
 11
12.92679695210085
 21
7.920537607963576
 31
0.0
  0
LINE
  5
273
330
23
100
AcDbEntity
  8
Visible (ANSI)
100
AcDbLine
 10
12.96104310038415
 20
7.861054218389303
 30
0.0
 11
12.92679695210085
 21
7.914799791031835
 31
0.0
  0
LINE
  5
274
330
23
100
AcDbEntity
  8
Visible (ANSI)
100
AcDbLine
 10
12.92679695210085
 20
7.920537607963576
 30
0.0
 11
12.92679695210085
 21
7.861959478983341
 31
0.0
  0
LINE
  5
275
330
23
100
AcDbEntity
  8
Visible (ANSI)
100
AcDbLine
 10
12.92679695210085
 20
7.861959478983341
 30
0.0
 11
12.89702056755161
 21
7.861959478983341
 31
0.0
  0
LINE
  5
276
330
23
100
AcDbEntity
  8
Visible (ANSI)
100
AcDbLine
 10
12.89336448724945
 20
7.861959478983341
 30
0.0
 11
12.89702056755161
 21
7.861959478983341
 31
0.0
  0
LINE
  5
277
330
23
100
AcDbEntity
  8
Visible (ANSI)
100
AcDbLine
 10
12.89702056755161
 20
7.861959478983341
 30
0.0
 11
12.89702056755161
 21
7.974954045748837
 31
0.0
  0
LINE
  5
278
330
23
100
AcDbEntity
  8
Visible (ANSI)
100
AcDbLine
 10
12.89336448724945
 20
7.861959478983341
 30
0.0
 11
12.89336448724945
 21
7.974954045748837
 31
0.0
  0
ELLIPSE
  5
279
330
23
100
AcDbEntity
  8
Visible (ANSI)
100
AcDbEllipse
 10
12.81010834164079
 20
7.918629825390833
 30
0.0
 11
0.0
 21
-0.0565
 31
0.0
210
0.0
220
0.0
230
0.9999999999999998
 40
0.9925461516412859
 41
0.0
 42
6.283185307179586
  0
ELLIPSE
  5
27A
330
23
100
AcDbEntity
  8
Visible (ANSI)
100
AcDbEllipse
 10
12.80645226133863
 20
7.918629825390833
 30
0.0
 11
0.0
 21
-0.0565
 31
0.0
210
0.0
220
0.0
230
0.9999999999999998
 40
0.9925461516412857
 41
3.141592653589793
 42
6.283185307179586
  0
LINE
  5
27B
330
23
100
AcDbEntity
  8
Visible (ANSI)
100
AcDbLine
 10
12.80645226133863
 20
7.975129825390832
 30
0.0
 11
12.81010834164079
 21
7.975129825390832
 31
0.0
  0
LINE
  5
27C
330
23
100
AcDbEntity
  8
Visible (ANSI)
100
AcDbLine
 10
12.80645226133863
 20
7.862129825390833
 30
0.0
 11
12.81010834164079
 21
7.862129825390833
 31
0.0
  0
ELLIPSE
  5
27D
330
23
100
AcDbEntity
  8
Visible (ANSI)
100
AcDbEllipse
 10
13.72023201503433
 20
7.938967792001294
 30
0.0
 11
0.0
 21
0.1414213562373094
 31
0.0
210
0.0
220
0.0
230
0.9999999999999998
 40
0.7071067811865476
 41
5.107398635434055
 42
5.759586531577911
  0
ELLIPSE
  5
27E
330
23
100
AcDbEntity
  8
Visible (ANSI)
100
AcDbEllipse
 10
13.72023201503423
 20
7.645967792001294
 30
0.0
 11
0.0
 21
0.1414213562373095
 31
0.0
210
0.0
220
0.0
230
0.9999999999999998
 40
0.7071067811865475
 41
4.712388980384689
 42
5.759586531578334
  0
ELLIPSE
  5
27F
330
23
100
AcDbEntity
  8
Visible (ANSI)
100
AcDbEllipse
 10
13.72023201503423
 20
7.028810504475911
 30
0.0
 11
0.0
 21
-0.1414213562373091
 31
0.0
210
0.0
220
0.0
230
1.0
 40
0.7071067811865493
 41
0.0
 42
1.570796326794896
  0
ELLIPSE
  5
280
330
23
100
AcDbEntity
  8
Visible (ANSI)
100
AcDbEllipse
 10
13.72023201503433
 20
6.735810504475913
 30
0.0
 11
0.0
 21
-0.1414213562373091
 31
0.0
210
0.0
220
0.0
230
1.0
 40
0.7071067811865493
 41
0.0
 42
1.17578667174553
  0
ELLIPSE
  5
281
330
23
100
AcDbEntity
  8
Visible (ANSI)
100
AcDbEllipse
 10
13.17023201503432
 20
6.735810504475913
 30
0.0
 11
0.0
 21
-0.1414213562373092
 31
0.0
210
0.0
220
0.0
230
0.9999999999999998
 40
0.7071067811865493
 41
5.107398635434046
 42
6.283185307179586
  0
ELLIPSE
  5
282
330
23
100
AcDbEntity
  8
Visible (ANSI)
100
AcDbEllipse
 10
13.17023201503424
 20
7.028810504475911
 30
0.0
 11
0.0
 21
-0.1414213562373092
 31
0.0
210
0.0
220
0.0
230
0.9999999999999998
 40
0.7071067811865493
 41
4.712388980384689
 42
6.283185307179586
  0
ELLIPSE
  5
283
330
23
100
AcDbEntity
  8
Visible (ANSI)
100
AcDbEllipse
 10
13.17023201503424
 20
7.645967792001294
 30
0.0
 11
0.0
 21
0.1414213562373095
 31
0.0
210
0.0
220
0.0
230
0.9999999999999998
 40
0.7071067811865478
 41
0.5235987755954025
 42
1.570796326794896
  0
ELLIPSE
  5
284
330
23
100
AcDbEntity
  8
Visible (ANSI)
100
AcDbEllipse
 10
13.17023201503432
 20
7.938967792001294
 30
0.0
 11
0.0
 21
0.1414213562373095
 31
0.0
210
0.0
220
0.0
230
0.9999999999999998
 40
0.7071067811865478
 41
0.5235987755950128
 42
1.17578667174553
  0
LINE
  5
285
330
23
100
AcDbEntity
  8
Visible (ANSI)
100
AcDbLine
 10
13.57023201503424
 20
7.071994217642699
 30
0.0
 11
13.32023201503424
 21
7.071994217642699
 31
0.0
  0
LINE
  5
286
330
23
100
AcDbEntity
  8
Visible (ANSI)
100
AcDbLine
 10
13.57023201503424
 20
7.028810504475913
 30
0.0
 11
13.57023201503432
 21
7.277389148238603
 31
0.0
  0
LINE
  5
287
330
23
100
AcDbEntity
  8
Visible (ANSI)
100
AcDbLine
 10
13.82023201503424
 20
7.028810504475911
 30
0.0
 11
13.57023201503424
 21
7.028810504475911
 31
0.0
  0
LINE
  5
288
330
23
100
AcDbEntity
  8
Visible (ANSI)
100
AcDbLine
 10
13.77023201503444
 20
7.645967792001294
 30
0.0
 11
13.82023201503424
 21
7.645967792001294
 31
0.0
  0
LINE
  5
289
330
23
100
AcDbEntity
  8
Visible (ANSI)
100
AcDbLine
 10
13.32023201503424
 20
7.028810504475911
 30
0.0
 11
13.07023201503424
 21
7.028810504475911
 31
0.0
  0
LINE
  5
28A
330
23
100
AcDbEntity
  8
Visible (ANSI)
100
AcDbLine
 10
13.32023201503432
 20
7.277389148238604
 30
0.0
 11
13.32023201503424
 21
7.028810504475911
 31
0.0
  0
LINE
  5
28B
330
23
100
AcDbEntity
  8
Visible (ANSI)
100
AcDbLine
 10
13.07023201503424
 20
7.645967792001294
 30
0.0
 11
13.12023201503444
 21
7.645967792001294
 31
0.0
  0
LINE
  5
28C
330
23
100
AcDbEntity
  8
Visible (ANSI)
100
AcDbLine
 10
13.77023201503466
 20
7.998234401994446
 30
0.0
 11
13.77023201503463
 21
8.163176128307478
 31
0.0
  0
LINE
  5
28D
330
23
100
AcDbEntity
  8
Visible (ANSI)
100
AcDbLine
 10
13.12023201503465
 20
7.998234401994446
 30
0.0
 11
13.12023201503463
 21
8.163176128307478
 31
0.0
  0
LINE
  5
28E
330
23
100
AcDbEntity
  8
Visible (ANSI)
100
AcDbLine
 10
13.77023201503461
 20
8.193760454082253
 30
0.0
 11
13.77023201503463
 21
8.163176128307478
 31
0.0
  0
LINE
  5
28F
330
23
100
AcDbEntity
  8
Visible (ANSI)
100
AcDbLine
 10
13.12023201503461
 20
8.193760454082253
 30
0.0
 11
13.12023201503463
 21
8.163176128307478
 31
0.0
  0
LINE
  5
290
330
23
100
AcDbEntity
  8
Visible (ANSI)
100
AcDbLine
 10
13.77023201503437
 20
7.287638335880224
 30
0.0
 11
13.77023201503436
 21
7.277389148238603
 31
0.0
  0
LINE
  5
291
330
23
100
AcDbEntity
  8
Visible (ANSI)
100
AcDbLine
 10
13.12023201503438
 20
7.287638335880224
 30
0.0
 11
13.12023201503436
 21
7.277389148238603
 31
0.0
  0
LINE
  5
292
330
23
100
AcDbEntity
  8
Visible (ANSI)
100
AcDbLine
 10
13.77023201503437
 20
7.287638335880225
 30
0.0
 11
13.77023201503465
 21
7.919067915410843
 31
0.0
  0
LINE
  5
293
330
23
100
AcDbEntity
  8
Visible (ANSI)
100
AcDbLine
 10
13.12023201503437
 20
7.287638335880225
 30
0.0
 11
13.12023201503465
 21
7.919067915410843
 31
0.0
  0
LINE
  5
294
330
23
100
AcDbEntity
  8
Visible (ANSI)
100
AcDbLine
 10
13.77023201503465
 20
7.998234401994446
 30
0.0
 11
13.77023201503465
 21
7.919067915410843
 31
0.0
  0
LINE
  5
295
330
23
100
AcDbEntity
  8
Visible (ANSI)
100
AcDbLine
 10
13.12023201503465
 20
7.998234401994446
 30
0.0
 11
13.12023201503465
 21
7.919067915410843
 31
0.0
  0
LINE
  5
296
330
23
100
AcDbEntity
  8
Visible (ANSI)
100
AcDbLine
 10
13.12023201503461
 20
8.193760454082253
 30
0.0
 11
13.77023201503461
 21
8.193760454082253
 31
0.0
  0
LINE
  5
297
330
23
100
AcDbEntity
  8
Visible (ANSI)
100
AcDbLine
 10
13.12023201503436
 20
7.277389148238603
 30
0.0
 11
13.77023201503436
 21
7.277389148238603
 31
0.0
  0
ELLIPSE
  5
298
330
23
100
AcDbEntity
  8
Visible (ANSI)
100
AcDbEllipse
 10
18.21204071203849
 20
10.6187670289997
 30
0.0
 11
0.1397290192435711
 21
0.2426433621206849
 31
0.0
210
0.0
220
0.0
230
1.0
 40
0.578093115915639
 41
4.846824774943613
 42
7.719545839415557
  0
ELLIPSE
  5
299
330
23
100
AcDbEntity
  8
Visible (ANSI)
100
AcDbEllipse
 10
18.17668537297915
 20
10.63912681468931
 30
0.0
 11
0.1397290192435708
 21
0.2426433621206842
 31
0.0
210
0.0
220
0.0
230
1.0
 40
0.5780931159156393
 41
0.0
 42
1.436360532235982
  0
LINE
  5
29A
330
23
100
AcDbEntity
  8
Visible (ANSI)
100
AcDbLine
 10
18.31641439222273
 20
10.88177017681
 30
0.0
 11
18.35176973128206
 21
10.86141039112038
 31
0.0
  0
ELLIPSE
  5
29B
330
23
100
AcDbEntity
  8
Visible (ANSI)
100
AcDbEllipse
 10
16.44780929297779
 20
11.63472033491142
 30
0.0
 11
0.0935685396720343
 21
0.1624843942772439
 31
0.0
210
0.0
220
0.0
230
1.0
 40
0.5780931159156393
 41
0.0
 42
3.141592653589787
  0
ELLIPSE
  5
29C
330
23
100
AcDbEntity
  8
Visible (ANSI)
100
AcDbEllipse
 10
16.44780929297779
 20
6.770314942098313
 30
0.0
 11
0.0935685396720343
 21
0.1624843942772439
 31
0.0
210
0.0
220
0.0
230
1.0
 40
0.5780931159156393
 41
0.0
 42
3.141592653589787
  0
LINE
  5
29D
330
23
100
AcDbEntity
  8
Visible (ANSI)
100
AcDbLine
 10
16.75723272371276
 20
11.24016829907225
 30
0.0
 11
16.35424075330576
 21
11.47223594063418
 31
0.0
  0
LINE
  5
29E
330
23
100
AcDbEntity
  8
Visible (ANSI)
100
AcDbLine
 10
16.94436980305683
 20
11.56513708762674
 30
0.0
 11
16.54137783264982
 21
11.79720472918867
 31
0.0
  0
LINE
  5
29F
330
23
100
AcDbEntity
  8
Visible (ANSI)
100
AcDbLine
 10
16.75723272371276
 20
6.375762906259137
 30
0.0
 11
16.35424075330576
 21
6.607830547821069
 31
0.0
  0
LINE
  5
2A0
330
23
100
AcDbEntity
  8
Visible (ANSI)
100
AcDbLine
 10
16.91803530246704
 20
6.715896725117858
 30
0.0
 11
16.54137783264982
 21
6.932799336375556
 31
0.0
  0
ELLIPSE
  5
2A1
330
23
100
AcDbEntity
  8
Visible (ANSI)
100
AcDbEllipse
 10
17.01349471792712
 20
6.444558371064493
 30
0.0
 11
-0.1871370793440492
 21
-0.3249687885545
 31
0.0
210
0.0
220
0.0
230
0.9999999999999998
 40
0.5780931159156392
 41
4.293325002000411
 42
6.283185307179309
  0
ELLIPSE
  5
2A2
330
23
100
AcDbEntity
  8
Visible (ANSI)
100
AcDbEllipse
 10
17.01349471792712
 20
11.3089637638776
 30
0.0
 11
0.1871370793440684
 21
0.3249687885544885
 31
0.0
210
0.0
220
0.0
230
1.0
 40
0.5780931159156392
 41
0.0000000000000017
 42
3.141592653589794
  0
LINE
  5
2A3
330
23
100
AcDbEntity
  8
Visible (ANSI)
100
AcDbLine
 10
16.82964695481873
 20
6.117695391267444
 30
0.0
 11
16.82635763858305
 21
6.119589582510005
 31
0.0
  0
LINE
  5
2A4
330
23
100
AcDbEntity
  8
Visible (ANSI)
100
AcDbLine
 10
16.82964695481873
 20
10.98210078408055
 30
0.0
 11
16.82635763858305
 21
10.98399497532311
 31
0.0
  0
LINE
  5
2A5
330
23
100
AcDbEntity
  8
Visible (ANSI)
100
AcDbLine
 10
18.17948337496805
 20
11.07024941788758
 30
0.0
 11
17.20063179727118
 21
11.63393255243209
 31
0.0
  0
ELLIPSE
  5
2A6
330
23
100
AcDbEntity
  8
Visible (ANSI)
100
AcDbEllipse
 10
19.04759637074425
 20
6.297846856929149
 30
0.0
 11
0.0138372560216498
 21
0.0307554401119716
 31
0.0
210
0.0
220
0.0
230
1.0
 40
0.5033322690287116
 41
4.010410590089858
 42
5.414367370679007
  0
ELLIPSE
  5
2A7
330
23
100
AcDbEntity
  8
Visible (ANSI)
100
AcDbEllipse
 10
19.07123669335245
 20
6.287210780996787
 30
0.0
 11
-0.0138372560216516
 21
-0.0307554401119713
 31
0.0
210
0.0
220
0.0
230
0.9999999999999998
 40
0.5033322690287124
 41
0.0
 42
6.28318530717957
  0
LINE
  5
2A8
330
23
100
AcDbEntity
  8
Visible (ANSI)
100
AcDbLine
 10
19.19157885288421
 20
6.421363487294726
 30
0.0
 11
19.23334159665336
 21
6.452145526345226
 31
0.0
  0
LINE
  5
2A9
330
23
100
AcDbEntity
  8
Visible (ANSI)
100
AcDbLine
 10
19.22936856554036
 20
6.453933042586013
 30
0.0
 11
19.23334159665336
 21
6.452145526345226
 31
0.0
  0
LINE
  5
2AA
330
23
100
AcDbEntity
  8
Visible (ANSI)
100
AcDbLine
 10
19.1810425112714
 20
6.426103918772775
 30
0.0
 11
19.19157885288421
 21
6.421363487294726
 31
0.0
  0
LINE
  5
2AB
330
23
100
AcDbEntity
  8
Visible (ANSI)
100
AcDbLine
 10
19.23334159665336
 20
6.452145526345226
 30
0.0
 11
19.23334159665336
 21
6.431706848224163
 31
0.0
  0
LINE
  5
2AC
330
23
100
AcDbEntity
  8
Visible (ANSI)
100
AcDbLine
 10
19.23334159665336
 20
6.431706848224163
 30
0.0
 11
19.20697038976735
 21
6.412269439497832
 31
0.0
  0
LINE
  5
2AD
330
23
100
AcDbEntity
  8
Visible (ANSI)
100
AcDbLine
 10
19.20697038976735
 20
6.412269439497832
 30
0.0
 11
19.20697038976735
 21
6.39591849700098
 31
0.0
  0
LINE
  5
2AE
330
23
100
AcDbEntity
  8
Visible (ANSI)
100
AcDbLine
 10
19.20697038976735
 20
6.39591849700098
 30
0.0
 11
19.22544023402712
 21
6.409532053389983
 31
0.0
  0
LINE
  5
2AF
330
23
100
AcDbEntity
  8
Visible (ANSI)
100
AcDbLine
 10
19.21166500848413
 20
6.415729699136566
 30
0.0
 11
19.22544023402712
 21
6.409532053389983
 31
0.0
  0
LINE
  5
2B0
330
23
100
AcDbEntity
  8
Visible (ANSI)
100
AcDbLine
 10
19.22544023402712
 20
6.409532053389983
 30
0.0
 11
19.22544023402712
 21
6.389093375268918
 31
0.0
  0
LINE
  5
2B1
330
23
100
AcDbEntity
  8
Visible (ANSI)
100
AcDbLine
 10
19.22544023402712
 20
6.389093375268918
 30
0.0
 11
19.20697038976735
 21
6.375479818879916
 31
0.0
  0
LINE
  5
2B2
330
23
100
AcDbEntity
  8
Visible (ANSI)
100
AcDbLine
 10
19.20697038976735
 20
6.375479818879916
 30
0.0
 11
19.20697038976735
 21
6.342777933886215
 31
0.0
  0
LINE
  5
2B3
330
23
100
AcDbEntity
  8
Visible (ANSI)
100
AcDbLine
 10
19.20697038976735
 20
6.342777933886215
 30
0.0
 11
19.19157885288421
 21
6.331433303562047
 31
0.0
  0
LINE
  5
2B4
330
23
100
AcDbEntity
  8
Visible (ANSI)
100
AcDbLine
 10
19.16793853027601
 20
6.342069379494409
 30
0.0
 11
19.19157885288421
 21
6.331433303562047
 31
0.0
  0
LINE
  5
2B5
330
23
100
AcDbEntity
  8
Visible (ANSI)
100
AcDbLine
 10
19.19157885288421
 20
6.331433303562047
 30
0.0
 11
19.19157885288421
 21
6.421363487294726
 31
0.0
  0
LINE
  5
2B6
330
23
100
AcDbEntity
  8
Visible (ANSI)
100
AcDbLine
 10
19.16793853027601
 20
6.342069379494409
 30
0.0
 11
19.16793853027601
 21
6.418557837987086
 31
0.0
  0
LINE
  5
2B7
330
23
100
AcDbEntity
  8
Visible (ANSI)
100
AcDbLine
 10
19.12356791875512
 20
6.37123471123071
 30
0.0
 11
19.16465706988284
 21
6.401520265780397
 31
0.0
  0
LINE
  5
2B8
330
23
100
AcDbEntity
  8
Visible (ANSI)
100
AcDbLine
 10
19.14988977969962
 20
6.408164253779504
 30
0.0
 11
19.16465706988284
 21
6.401520265780397
 31
0.0
  0
LINE
  5
2B9
330
23
100
AcDbEntity
  8
Visible (ANSI)
100
AcDbLine
 10
19.10234317791887
 20
6.380783986801964
 30
0.0
 11
19.12356791875512
 21
6.37123471123071
 31
0.0
  0
LINE
  5
2BA
330
23
100
AcDbEntity
  8
Visible (ANSI)
100
AcDbLine
 10
19.16465706988284
 20
6.401520265780397
 30
0.0
 11
19.16465706988284
 21
6.381081587659334
 31
0.0
  0
LINE
  5
2BB
330
23
100
AcDbEntity
  8
Visible (ANSI)
100
AcDbLine
 10
19.16465706988284
 20
6.381081587659334
 30
0.0
 11
19.13895945563826
 21
6.362140663433815
 31
0.0
  0
LINE
  5
2BC
330
23
100
AcDbEntity
  8
Visible (ANSI)
100
AcDbLine
 10
19.13895945563826
 20
6.362140663433815
 30
0.0
 11
19.13895945563826
 21
6.345789720936964
 31
0.0
  0
LINE
  5
2BD
330
23
100
AcDbEntity
  8
Visible (ANSI)
100
AcDbLine
 10
19.13895945563826
 20
6.345789720936964
 30
0.0
 11
19.15742929989803
 21
6.359403277325966
 31
0.0
  0
LINE
  5
2BE
330
23
100
AcDbEntity
  8
Visible (ANSI)
100
AcDbLine
 10
19.14365407435504
 20
6.365600923072549
 30
0.0
 11
19.15742929989803
 21
6.359403277325966
 31
0.0
  0
LINE
  5
2BF
330
23
100
AcDbEntity
  8
Visible (ANSI)
100
AcDbLine
 10
19.15742929989803
 20
6.359403277325966
 30
0.0
 11
19.15742929989803
 21
6.338964599204903
 31
0.0
  0
LINE
  5
2C0
330
23
100
AcDbEntity
  8
Visible (ANSI)
100
AcDbLine
 10
19.15742929989803
 20
6.338964599204903
 30
0.0
 11
19.13895945563826
 21
6.325351042815901
 31
0.0
  0
LINE
  5
2C1
330
23
100
AcDbEntity
  8
Visible (ANSI)
100
AcDbLine
 10
19.13895945563826
 20
6.325351042815901
 30
0.0
 11
19.13895945563826
 21
6.292649157822199
 31
0.0
  0
LINE
  5
2C2
330
23
100
AcDbEntity
  8
Visible (ANSI)
100
AcDbLine
 10
19.13895945563826
 20
6.292649157822199
 30
0.0
 11
19.12356791875512
 21
6.28130452749803
 31
0.0
  0
LINE
  5
2C3
330
23
100
AcDbEntity
  8
Visible (ANSI)
100
AcDbLine
 10
19.10197843407103
 20
6.291017905874723
 30
0.0
 11
19.12356791875512
 21
6.28130452749803
 31
0.0
  0
LINE
  5
2C4
330
23
100
AcDbEntity
  8
Visible (ANSI)
100
AcDbLine
 10
19.12356791875512
 20
6.28130452749803
 30
0.0
 11
19.12356791875512
 21
6.37123471123071
 31
0.0
  0
LINE
  5
2C5
330
23
100
AcDbEntity
  8
Visible (ANSI)
100
AcDbLine
 10
19.09992759614692
 20
6.332239255527094
 30
0.0
 11
19.09992759614692
 21
6.379392945773897
 31
0.0
  0
ELLIPSE
  5
2C6
330
23
100
AcDbEntity
  8
Visible (ANSI)
100
AcDbEllipse
 10
19.07123669335245
 20
6.287210780996787
 30
0.0
 11
-0.0225664062336495
 21
-0.0501573255835865
 31
0.0
210
0.0
220
0.0
230
0.9999999999999996
 40
0.5033322690287125
 41
0.0
 42
6.28318530717957
  0
ELLIPSE
  5
2C7
330
23
100
AcDbEntity
  8
Visible (ANSI)
100
AcDbEllipse
 10
19.04759637074425
 20
6.297846856929149
 30
0.0
 11
-0.0225664062336494
 21
-0.0501573255835865
 31
0.0
210
0.0
220
0.0
230
1.0
 40
0.5033322690287122
 41
3.141592653589764
 42
6.283185307179568
  0
LINE
  5
2C8
330
23
100
AcDbEntity
  8
Visible (ANSI)
100
AcDbLine
 10
19.0701627769779
 20
6.348004182512736
 30
0.0
 11
19.0938030995861
 21
6.337368106580373
 31
0.0
  0
LINE
  5
2C9
330
23
100
AcDbEntity
  8
Visible (ANSI)
100
AcDbLine
 10
19.0250299645106
 20
6.247689531345562
 30
0.0
 11
19.0486702871188
 21
6.237053455413199
 31
0.0
  0
ELLIPSE
  5
2CA
330
23
100
AcDbEntity
  8
Visible (ANSI)
100
AcDbEllipse
 10
19.03228457821516
 20
5.782206709608843
 30
0.0
 11
0.0074854831737661
 21
-0.0129987515421776
 31
0.0
210
0.0
220
0.0
230
0.9999999999999998
 40
0.5780931159158107
 41
5.499720852205022
 42
7.070517179000018
  0
ELLIPSE
  5
2CB
330
23
100
AcDbEntity
  8
Visible (ANSI)
100
AcDbEllipse
 10
20.09294474999483
 20
6.393000280297434
 30
0.0
 11
0.0074854831737657
 21
-0.0129987515421773
 31
0.0
210
0.0
220
0.0
230
1.0
 40
0.5780931159158107
 41
0.0000000000000977
 42
0.7873318718204918
  0
LINE
  5
2CC
330
23
100
AcDbEntity
  8
Visible Narrow (ANSI)
100
AcDbLine
 10
20.10355135171263
 20
6.38689234459055
 30
0.0
 11
19.04289117993296
 21
5.776098773901958
 31
0.0
  0
ELLIPSE
  5
2CD
330
23
100
AcDbEntity
  8
Visible (ANSI)
100
AcDbEllipse
 10
19.03228457821516
 20
6.05100540982626
 30
0.0
 11
0.0074854831737663
 21
-0.0129987515421781
 31
0.0
210
0.0
220
0.0
230
0.9999999999999998
 40
0.5780931159158106
 41
0.7873318718203564
 42
1.572730035217865
  0
ELLIPSE
  5
2CE
330
23
100
AcDbEntity
  8
Visible (ANSI)
100
AcDbEllipse
 10
19.03228457821516
 20
7.379050548282101
 30
0.0
 11
0.0074854831737663
 21
-0.012998751542178
 31
0.0
210
0.0
220
0.0
230
0.9999999999999998
 40
0.5780931159158106
 41
0.0019337084227367
 42
0.787331871820129
  0
ELLIPSE
  5
2CF
330
23
100
AcDbEntity
  8
Visible (ANSI)
100
AcDbEllipse
 10
19.03228457821516
 20
7.647849248499518
 30
0.0
 11
0.0074854831737653
 21
-0.0129987515421781
 31
0.0
210
0.0
220
0.0
230
1.0
 40
0.5780931159158105
 41
0.7873318718205287
 42
2.358128198615402
  0
LINE
  5
2D0
330
23
100
AcDbEntity
  8
Visible Narrow (ANSI)
100
AcDbLine
 10
19.04289117993296
 20
6.044897474119375
 30
0.0
 11
20.10355135171263
 21
6.655691044807967
 31
0.0
  0
ELLIPSE
  5
2D1
330
23
100
AcDbEntity
  8
Visible (ANSI)
100
AcDbEllipse
 10
20.09294474999483
 20
6.66179898051485
 30
0.0
 11
-0.007485483173767
 21
0.0129987515421775
 31
0.0
210
0.0
220
0.0
230
1.0
 40
0.5780931159158105
 41
3.928924525409865
 42
4.714322688807408
  0
LINE
  5
2D2
330
23
100
AcDbEntity
  8
Visible Narrow (ANSI)
100
AcDbLine
 10
20.10044474999483
 20
6.666151414496197
 30
0.0
 11
19.03978457821516
 21
6.055357843807605
 31
0.0
  0
ELLIPSE
  5
2D3
330
23
100
AcDbEntity
  8
Visible (ANSI)
100
AcDbEllipse
 10
20.09294474999483
 20
8.258642819188111
 30
0.0
 11
-0.0074854831737669
 21
0.0129987515421772
 31
0.0
210
0.0
220
0.0
230
1.0
 40
0.5780931159158106
 41
3.928924525409865
 42
5.49972085220485
  0
ELLIPSE
  5
2D4
330
23
100
AcDbEntity
  8
Visible (ANSI)
100
AcDbEllipse
 10
20.09294474999483
 20
7.989844118970693
 30
0.0
 11
0.0074854831737663
 21
-0.012998751542178
 31
0.0
210
0.0
220
0.0
230
1.0
 40
0.5780931159158107
 41
0.0019337084230962
 42
0.7873318718204715
  0
LINE
  5
2D5
330
23
100
AcDbEntity
  8
Visible (ANSI)
100
AcDbLine
 10
19.03978457821516
 20
7.366060188785976
 30
0.0
 11
20.10044474999483
 21
7.976853759474567
 31
0.0
  0
LINE
  5
2D6
330
23
100
AcDbEntity
  8
Visible Narrow (ANSI)
100
AcDbLine
 10
20.10355135171263
 20
7.983736183263808
 30
0.0
 11
19.04289117993296
 21
7.372942612575217
 31
0.0
  0
LINE
  5
2D7
330
23
100
AcDbEntity
  8
Visible Narrow (ANSI)
100
AcDbLine
 10
19.04289117993296
 20
7.641741312792634
 30
0.0
 11
20.10355135171263
 21
8.252534883481224
 31
0.0
  0
LINE
  5
2D8
330
23
100
AcDbEntity
  8
Visible Narrow (ANSI)
100
AcDbLine
 10
20.09294474999483
 20
8.270906026060748
 30
0.0
 11
19.03228457821516
 21
7.660112455372156
 31
0.0
  0
LINE
  5
2D9
330
23
100
AcDbEntity
  8
Visible (ANSI)
100
AcDbLine
 10
20.1004302331686
 20
6.380001528755257
 30
0.0
 11
19.03977006138893
 21
5.769207958066665
 31
0.0
  0
LINE
  5
2DA
330
23
100
AcDbEntity
  8
Visible (ANSI)
100
AcDbLine
 10
19.03228457821516
 20
5.769943502736205
 30
0.0
 11
18.8873276880719
 21
5.85341862406362
 31
0.0
  0
LINE
  5
2DB
330
23
100
AcDbEntity
  8
Visible (ANSI)
100
AcDbLine
 10
19.04289117993296
 20
6.044897474119375
 30
0.0
 11
19.04289117993296
 21
5.776098773901958
 31
0.0
  0
LINE
  5
2DC
330
23
100
AcDbEntity
  8
Visible (ANSI)
100
AcDbLine
 10
18.9983434527182
 20
6.127135859558202
 30
0.0
 11
19.03978457821516
 21
6.055357843807605
 31
0.0
  0
LINE
  5
2DD
330
23
100
AcDbEntity
  8
Visible (ANSI)
100
AcDbLine
 10
18.9983434527182
 20
6.198262459419503
 30
0.0
 11
18.9983434527182
 21
6.127135859558202
 31
0.0
  0
LINE
  5
2DE
330
23
100
AcDbEntity
  8
Visible (ANSI)
100
AcDbLine
 10
18.9983434527182
 20
7.148252218486534
 30
0.0
 11
18.9983434527182
 21
6.320894528145884
 31
0.0
  0
LINE
  5
2DF
330
23
100
AcDbEntity
  8
Visible (ANSI)
100
AcDbLine
 10
18.9983434527182
 20
7.342010887074216
 30
0.0
 11
18.9983434527182
 21
7.270884287212916
 31
0.0
  0
LINE
  5
2E0
330
23
100
AcDbEntity
  8
Visible (ANSI)
100
AcDbLine
 10
19.03978457821516
 20
7.366060188785976
 30
0.0
 11
18.9983434527182
 21
7.342010887074216
 31
0.0
  0
LINE
  5
2E1
330
23
100
AcDbEntity
  8
Visible (ANSI)
100
AcDbLine
 10
19.04289117993296
 20
7.641741312792634
 30
0.0
 11
19.04289117993296
 21
7.372942612575217
 31
0.0
  0
LINE
  5
2E2
330
23
100
AcDbEntity
  8
Visible (ANSI)
100
AcDbLine
 10
18.8873276880719
 20
7.743587576699572
 30
0.0
 11
19.03228457821516
 21
7.660112455372156
 31
0.0
  0
LINE
  5
2E3
330
23
100
AcDbEntity
  8
Visible (ANSI)
100
AcDbLine
 10
18.8873276880719
 20
8.593836586535815
 30
0.0
 11
18.8873276880719
 21
7.743587576699572
 31
0.0
  0
LINE
  5
2E4
330
23
100
AcDbEntity
  8
Visible (ANSI)
100
AcDbLine
 10
18.8873276880719
 20
5.85341862406362
 30
0.0
 11
18.8873276880719
 21
5.793737683950115
 31
0.0
  0
LINE
  5
2E5
330
23
100
AcDbEntity
  8
Visible (ANSI)
100
AcDbLine
 10
20.10044474999483
 20
6.666151414496197
 30
0.0
 11
20.05900362449787
 21
6.737929430246794
 31
0.0
  0
LINE
  5
2E6
330
23
100
AcDbEntity
  8
Visible (ANSI)
100
AcDbLine
 10
20.05900362449787
 20
6.737929430246794
 30
0.0
 11
19.72312790343431
 21
6.544511466195405
 31
0.0
  0
LINE
  5
2E7
330
23
100
AcDbEntity
  8
Visible (ANSI)
100
AcDbLine
 10
19.33421917378176
 20
6.320553823609589
 30
0.0
 11
18.9983434527182
 21
6.127135859558202
 31
0.0
  0
LINE
  5
2E8
330
23
100
AcDbEntity
  8
Visible (ANSI)
100
AcDbLine
 10
19.94798785985156
 20
8.354381147388163
 30
0.0
 11
19.94798785985156
 21
9.204630157224405
 31
0.0
  0
LINE
  5
2E9
330
23
100
AcDbEntity
  8
Visible (ANSI)
100
AcDbLine
 10
20.09294474999483
 20
8.270906026060748
 30
0.0
 11
19.94798785985156
 21
8.354381147388163
 31
0.0
  0
LINE
  5
2EA
330
23
100
AcDbEntity
  8
Visible (ANSI)
100
AcDbLine
 10
20.10355135171263
 20
7.983736183263808
 30
0.0
 11
20.10355135171263
 21
8.252534883481224
 31
0.0
  0
LINE
  5
2EB
330
23
100
AcDbEntity
  8
Visible (ANSI)
100
AcDbLine
 10
20.05900362449787
 20
7.952804457762807
 30
0.0
 11
20.10044474999483
 21
7.976853759474567
 31
0.0
  0
LINE
  5
2EC
330
23
100
AcDbEntity
  8
Visible (ANSI)
100
AcDbLine
 10
20.05900362449787
 20
7.881677857901507
 30
0.0
 11
20.05900362449787
 21
7.952804457762807
 31
0.0
  0
LINE
  5
2ED
330
23
100
AcDbEntity
  8
Visible (ANSI)
100
AcDbLine
 10
20.05900362449787
 20
7.496566458757834
 30
0.0
 11
20.05900362449787
 21
7.759045789175125
 31
0.0
  0
LINE
  5
2EE
330
23
100
AcDbEntity
  8
Visible (ANSI)
100
AcDbLine
 10
20.05900362449787
 20
6.737929430246794
 30
0.0
 11
20.05900362449787
 21
6.809056030108094
 31
0.0
  0
LINE
  5
2EF
330
23
100
AcDbEntity
  8
Visible (ANSI)
100
AcDbLine
 10
20.10355135171263
 20
6.38689234459055
 30
0.0
 11
20.10355135171263
 21
6.655691044807967
 31
0.0
  0
LINE
  5
2F0
330
23
100
AcDbEntity
  8
Visible (ANSI)
100
AcDbLine
 10
16.95692617543229
 20
11.38484597334341
 30
0.0
 11
16.82964695481873
 21
11.31155074486077
 31
0.0
  0
LINE
  5
2F1
330
23
100
AcDbEntity
  8
Visible (ANSI)
100
AcDbLine
 10
17.83373858410348
 20
11.88976865844598
 30
0.0
 11
17.70645936348992
 21
11.81647342996334
 31
0.0
  0
LINE
  5
2F2
330
23
100
AcDbEntity
  8
Visible Narrow (ANSI)
100
AcDbLine
 10
19.42472884177345
 20
10.97357830241336
 30
0.0
 11
19.29744962115989
 21
10.90028307393073
 31
0.0
  0
LINE
  5
2F3
330
23
100
AcDbEntity
  8
Visible Narrow (ANSI)
100
AcDbLine
 10
19.94798785985156
 20
10.13254614392069
 30
0.0
 11
19.69342941862444
 21
9.985955686955426
 31
0.0
  0
ELLIPSE
  5
2F4
330
23
100
AcDbEntity
  8
Visible (ANSI)
100
AcDbEllipse
 10
19.45301311302091
 20
10.41758314357528
 30
0.0
 11
-0.3493225481091196
 21
0.6066084053016016
 31
0.0
210
0.0
220
0.0
230
0.9999999999999998
 40
0.5780931159158106
 41
3.928924525409886
 42
4.324906416985271
  0
LINE
  5
2F5
330
23
100
AcDbEntity
  8
Visible (ANSI)
100
AcDbLine
 10
19.94798785985156
 20
5.460264325445571
 30
0.0
 11
19.94798785985156
 21
6.07751240470169
 31
0.0
  0
ELLIPSE
  5
2F6
330
23
100
AcDbEntity
  8
Visible (ANSI)
100
AcDbEllipse
 10
19.45301311302091
 20
5.745301325100162
 30
0.0
 11
0.3493225481090821
 21
-0.6066084053016207
 31
0.0
210
0.0
220
0.0
230
1.0
 40
0.5780931159158107
 41
0.3913499802450481
 42
0.7873318718203365
  0
LINE
  5
2F7
330
23
100
AcDbEntity
  8
Visible Narrow (ANSI)
100
AcDbLine
 10
19.14188612929901
 20
4.996061211722241
 30
0.0
 11
18.8873276880719
 21
4.849470754756979
 31
0.0
  0
ELLIPSE
  5
2F8
330
23
100
AcDbEntity
  8
Visible (ANSI)
100
AcDbEllipse
 10
18.39235294124124
 20
5.13450775441157
 30
0.0
 11
0.3493225481090818
 21
-0.6066084053016202
 31
0.0
210
0.0
220
0.0
230
1.0
 40
0.5780931159158106
 41
0.391349980245046
 42
0.7873318718203324
  0
LINE
  5
2F9
330
23
100
AcDbEntity
  8
Visible (ANSI)
100
AcDbLine
 10
18.8873276880719
 20
9.521752573232095
 30
0.0
 11
18.8873276880719
 21
8.920855436472828
 31
0.0
  0
ELLIPSE
  5
2FA
330
23
100
AcDbEntity
  8
Visible (ANSI)
100
AcDbEllipse
 10
18.39235294124124
 20
9.806789572886687
 30
0.0
 11
0.3493225481090834
 21
-0.6066084053016226
 31
0.0
210
0.0
220
0.0
230
1.0
 40
0.5780931159158106
 41
0.7873318718203315
 42
1.183313763395622
  0
LINE
  5
2FB
330
23
100
AcDbEntity
  8
Visible Narrow (ANSI)
100
AcDbLine
 10
19.94798785985156
 20
5.460264325445571
 30
0.0
 11
19.69342941862444
 21
5.313673868480309
 31
0.0
  0
LINE
  5
2FC
330
23
100
AcDbEntity
  8
Visible (ANSI)
100
AcDbLine
 10
18.8873276880719
 20
5.466718834013098
 30
0.0
 11
18.8873276880719
 21
4.849470754756979
 31
0.0
  0
LINE
  5
2FD
330
23
100
AcDbEntity
  8
Visible Narrow (ANSI)
100
AcDbLine
 10
18.54791643310226
 20
10.46865561731079
 30
0.0
 11
18.4206372124887
 21
10.39536038882816
 31
0.0
  0
LINE
  5
2FE
330
23
100
AcDbEntity
  8
Visible (ANSI)
100
AcDbLine
 10
19.94798785985156
 20
8.354381147388163
 30
0.0
 11
18.8873276880719
 21
7.743587576699572
 31
0.0
  0
LINE
  5
2FF
330
23
100
AcDbEntity
  8
Visible (ANSI)
100
AcDbLine
 10
20.05900362449787
 20
7.952804457762807
 30
0.0
 11
19.72312790343431
 21
7.759386493711421
 31
0.0
  0
LINE
  5
300
330
23
100
AcDbEntity
  8
Visible (ANSI)
100
AcDbLine
 10
19.33421917378176
 20
7.535428851125604
 30
0.0
 11
18.9983434527182
 21
7.342010887074216
 31
0.0
  0
LINE
  5
301
330
23
100
AcDbEntity
  8
Visible (ANSI)
100
AcDbLine
 10
19.94798785985156
 20
9.531649007161421
 30
0.0
 11
19.94798785985156
 21
10.13254614392069
 31
0.0
  0
LINE
  5
302
330
23
100
AcDbEntity
  8
Visible Narrow (ANSI)
100
AcDbLine
 10
19.14188612929901
 20
9.668343030197359
 30
0.0
 11
18.8873276880719
 21
9.521752573232095
 31
0.0
  0
LINE
  5
303
330
23
100
AcDbEntity
  8
Visible (ANSI)
100
AcDbLine
 10
18.89723898121134
 20
4.617482406144275
 30
0.0
 11
18.76995976059778
 21
4.544187177661644
 31
0.0
  0
LINE
  5
304
330
23
100
AcDbEntity
  8
Visible (ANSI)
100
AcDbLine
 10
19.77405138988253
 20
5.122405091246845
 30
0.0
 11
19.64677216926897
 21
5.049109862764214
 31
0.0
  0
ELLIPSE
  5
305
330
23
100
AcDbEntity
  8
Visible (ANSI)
100
AcDbEllipse
 10
18.70347992496337
 20
7.506088669851695
 30
0.0
 11
0.0648741875059659
 21
-0.1126558466988766
 31
0.0
210
0.0
220
0.0
230
0.9999999999999998
 40
0.5780931159158106
 41
0.0000000000002121
 42
6.283185307179586
  0
LINE
  5
306
330
23
100
AcDbEntity
  8
Visible (ANSI)
100
AcDbLine
 10
18.76661185544277
 20
8.990371061186475
 30
0.0
 11
18.79521376134536
 21
9.006841803370965
 31
0.0
  0
LINE
  5
307
330
23
100
AcDbEntity
  8
Visible (ANSI)
100
AcDbLine
 10
18.80897095778887
 20
9.067777004905316
 30
0.0
 11
18.76358400136421
 21
9.093913614834562
 31
0.0
  0
LINE
  5
308
330
23
100
AcDbEntity
  8
Visible (ANSI)
100
AcDbLine
 10
18.76358400136421
 20
5.644130962555547
 30
0.0
 11
18.76358400136421
 21
5.639777012374829
 31
0.0
  0
ELLIPSE
  5
309
330
23
100
AcDbEntity
  8
Visible (ANSI)
100
AcDbEllipse
 10
18.80601040823541
 20
5.525415085814614
 30
0.0
 11
-0.0648741875059725
 21
0.1126558466988725
 31
0.0
210
0.0
220
0.0
230
1.0
 40
0.5780931159158108
 41
0.3037358172988022
 42
2.39573852503823
  0
LINE
  5
30A
330
23
100
AcDbEntity
  8
Visible (ANSI)
100
AcDbLine
 10
18.76358400136421
 20
5.639777012374829
 30
0.0
 11
18.85500020309108
 21
5.587133922950795
 31
0.0
  0
LINE
  5
30B
330
23
100
AcDbEntity
  8
Visible (ANSI)
100
AcDbLine
 10
18.67519565371591
 20
5.593231498331499
 30
0.0
 11
18.76358400136421
 21
5.644130962555547
 31
0.0
  0
ELLIPSE
  5
30C
330
23
100
AcDbEntity
  8
Visible (ANSI)
100
AcDbEllipse
 10
18.7176220605871
 20
5.474515621590565
 30
0.0
 11
0.0648741875059727
 21
-0.1126558466988728
 31
0.0
210
0.0
220
0.0
230
0.9999999999999998
 40
0.5780931159158106
 41
2.837856836290974
 42
8.079243702789186
  0
LINE
  5
30D
330
23
100
AcDbEntity
  8
Visible (ANSI)
100
AcDbLine
 10
18.85500020309108
 20
5.587133922950795
 30
0.0
 11
18.76661185544277
 21
5.536234458726745
 31
0.0
  0
ELLIPSE
  5
30E
330
23
100
AcDbEntity
  8
Visible (ANSI)
100
AcDbEllipse
 10
18.80601040823541
 20
9.159412055739704
 30
0.0
 11
0.0648741875059794
 21
-0.112655846698869
 31
0.0
210
0.0
220
0.0
230
0.9999999999999998
 40
0.5780931159158107
 41
3.887446782141127
 42
5.019992214529145
  0
LINE
  5
30F
330
23
100
AcDbEntity
  8
Visible (ANSI)
100
AcDbLine
 10
18.76358400136421
 20
9.093913614834562
 30
0.0
 11
18.76358400136421
 21
9.089559664653844
 31
0.0
  0
ELLIPSE
  5
310
330
23
100
AcDbEntity
  8
Visible (ANSI)
100
AcDbEllipse
 10
18.7176220605871
 20
9.108512591515655
 30
0.0
 11
-0.0648741875059726
 21
0.1126558466988726
 31
0.0
210
0.0
220
0.0
230
0.9999999999999998
 40
0.5780931159158106
 41
2.92019800162086
 42
8.161584868119069
  0
LINE
  5
311
330
23
100
AcDbEntity
  8
Visible (ANSI)
100
AcDbLine
 10
18.76358400136421
 20
9.089559664653844
 30
0.0
 11
18.67519565371591
 21
9.038660200429793
 31
0.0
  0
ELLIPSE
  5
312
330
23
100
AcDbEntity
  8
Visible (ANSI)
100
AcDbEllipse
 10
18.79186827261167
 20
7.556988134075745
 30
0.0
 11
0.0648741875059794
 21
-0.1126558466988689
 31
0.0
210
0.0
220
0.0
230
0.9999999999999998
 40
0.5780931159158106
 41
3.887446782141086
 42
5.537331178627749
  0
LINE
  5
313
330
23
100
AcDbEntity
  8
Visible (ANSI)
100
AcDbLine
 10
18.9983434527182
 20
6.320894528145884
 30
0.0
 11
18.9983434527182
 21
6.198262459419503
 31
0.0
  0
LINE
  5
314
330
23
100
AcDbEntity
  8
Visible (ANSI)
100
AcDbLine
 10
18.9983434527182
 20
7.270884287212916
 30
0.0
 11
18.9983434527182
 21
7.148252218486534
 31
0.0
  0
LINE
  5
315
330
23
100
AcDbEntity
  8
Visible (ANSI)
100
AcDbLine
 10
18.9983434527182
 20
6.320894528145884
 30
0.0
 11
19.26350849566312
 21
6.473592920818033
 31
0.0
  0
LINE
  5
316
330
23
100
AcDbEntity
  8
Visible (ANSI)
100
AcDbLine
 10
19.26895372353187
 20
6.354096550274402
 30
0.0
 11
18.9983434527182
 21
6.198262459419503
 31
0.0
  0
ELLIPSE
  5
317
330
23
100
AcDbEntity
  8
Visible (ANSI)
100
AcDbEllipse
 10
19.37270088381854
 20
6.369520280472296
 30
0.0
 11
-0.1213283902103183
 21
0.0323649882561251
 31
0.0
210
0.0
220
0.0
230
0.9999999999999998
 40
0.5164813382865359
 41
0.2610895757678824
 42
0.6972191512618867
  0
LINE
  5
318
330
23
100
AcDbEntity
  8
Visible (ANSI)
100
AcDbLine
 10
19.25116946364179
 20
6.38461276686699
 30
0.0
 11
19.20697038976735
 21
6.352034983531696
 31
0.0
  0
LINE
  5
319
330
23
100
AcDbEntity
  8
Visible (ANSI)
100
AcDbLine
 10
19.18378003965044
 20
6.334942086885838
 30
0.0
 11
19.13895945563826
 21
6.30190620746768
 31
0.0
  0
LINE
  5
31A
330
23
100
AcDbEntity
  8
Visible (ANSI)
100
AcDbLine
 10
19.11576910552135
 20
6.284813310821823
 30
0.0
 11
19.09228661240594
 21
6.267505084521431
 31
0.0
  0
LINE
  5
31B
330
23
100
AcDbEntity
  8
Visible (ANSI)
100
AcDbLine
 10
19.05018677429896
 20
6.236474583561249
 30
0.0
 11
18.9983434527182
 21
6.198262459419503
 31
0.0
  0
ELLIPSE
  5
31C
330
23
100
AcDbEntity
  8
Visible (ANSI)
100
AcDbEllipse
 10
19.29297882085301
 20
6.507602714831592
 30
0.0
 11
-0.0326682680372205
 21
-0.1276497894199134
 31
0.0
210
0.0
220
0.0
230
1.0
 40
0.4130733749442414
 41
5.459265545073577
 42
6.098201340859723
  0
LINE
  5
31D
330
23
100
AcDbEntity
  8
Visible (ANSI)
100
AcDbLine
 10
19.23095032229832
 20
6.454843915723197
 30
0.0
 11
19.23095032229832
 21
6.453221390496359
 31
0.0
  0
LINE
  5
31E
330
23
100
AcDbEntity
  8
Visible (ANSI)
100
AcDbLine
 10
18.9983434527182
 20
7.270884287212916
 30
0.0
 11
19.26895372353187
 21
7.426718378067813
 31
0.0
  0
LINE
  5
31F
330
23
100
AcDbEntity
  8
Visible (ANSI)
100
AcDbLine
 10
19.26350849566312
 20
7.300950611158683
 30
0.0
 11
18.9983434527182
 21
7.148252218486534
 31
0.0
  0
LINE
  5
320
330
23
100
AcDbEntity
  8
Visible (ANSI)
100
AcDbLine
 10
19.23095032229832
 20
7.319699616253505
 30
0.0
 11
19.26350849566312
 21
7.300950611158683
 31
0.0
  0
LINE
  5
321
330
23
100
AcDbEntity
  8
Visible (ANSI)
100
AcDbLine
 10
18.9983434527182
 20
7.148252218486534
 30
0.0
 11
19.06695911087448
 21
7.198826718105559
 31
0.0
  0
LINE
  5
322
330
23
100
AcDbEntity
  8
Visible (ANSI)
100
AcDbLine
 10
19.11495905213015
 20
7.234206004349797
 30
0.0
 11
19.13403257510338
 21
7.248264513825087
 31
0.0
  0
LINE
  5
323
330
23
100
AcDbEntity
  8
Visible (ANSI)
100
AcDbLine
 10
19.16335221725052
 20
7.26987512385849
 30
0.0
 11
19.17538909423058
 21
7.278747137136502
 31
0.0
  0
LINE
  5
324
330
23
100
AcDbEntity
  8
Visible (ANSI)
100
AcDbLine
 10
19.21832655855687
 20
7.310395026722668
 30
0.0
 11
19.23095032229832
 21
7.319699616253505
 31
0.0
  0
LINE
  5
325
330
23
100
AcDbEntity
  8
Visible (ANSI)
100
AcDbLine
 10
19.23095032229832
 20
7.360196349880085
 30
0.0
 11
19.23095032229832
 21
7.319699616253505
 31
0.0
  0
ELLIPSE
  5
326
330
23
100
AcDbEntity
  8
Visible (ANSI)
100
AcDbEllipse
 10
19.29297882085301
 20
7.395877439477154
 30
0.0
 11
-0.0237438882719586
 21
-0.1204709395168032
 31
0.0
210
0.0
220
0.0
230
1.0
 40
0.4756675947659927
 41
4.708803604081611
 42
5.105203400778555
  0
LINE
  5
327
330
23
100
AcDbEntity
  8
Visible (ANSI)
100
AcDbLine
 10
18.8873276880719
 20
8.593836586535815
 30
0.0
 11
18.67519565371591
 21
8.715995300673496
 31
0.0
  0
LINE
  5
328
330
23
100
AcDbEntity
  8
Visible (ANSI)
100
AcDbLine
 10
18.67519565371591
 20
5.915896398087797
 30
0.0
 11
18.8873276880719
 21
5.793737683950115
 31
0.0
  0
LINE
  5
329
330
23
100
AcDbEntity
  8
Visible (ANSI)
100
AcDbLine
 10
19.73585582549556
 20
9.326788871362088
 30
0.0
 11
19.94798785985156
 21
9.204630157224405
 31
0.0
  0
LINE
  5
32A
330
23
100
AcDbEntity
  8
Visible (ANSI)
100
AcDbLine
 10
18.8873276880719
 20
8.920855436472828
 30
0.0
 11
19.94798785985156
 21
9.531649007161421
 31
0.0
  0
LINE
  5
32B
330
23
100
AcDbEntity
  8
Visible (ANSI)
100
AcDbLine
 10
18.76661185544277
 20
8.990371061186475
 30
0.0
 11
18.8873276880719
 21
8.920855436472828
 31
0.0
  0
LINE
  5
32C
330
23
100
AcDbEntity
  8
Visible (ANSI)
100
AcDbLine
 10
19.82727202722244
 20
6.147028029415336
 30
0.0
 11
19.94798785985156
 21
6.07751240470169
 31
0.0
  0
LINE
  5
32D
330
23
100
AcDbEntity
  8
Visible (ANSI)
100
AcDbLine
 10
19.04289117993291
 20
5.588877548150812
 30
0.0
 11
19.73585582549562
 21
5.987929347667359
 31
0.0
  0
LINE
  5
32E
330
23
100
AcDbEntity
  8
Visible (ANSI)
100
AcDbLine
 10
18.8873276880719
 20
5.466718834013098
 30
0.0
 11
18.76661185544277
 21
5.536234458726745
 31
0.0
  0
LINE
  5
32F
330
23
100
AcDbEntity
  8
Visible (ANSI)
100
AcDbLine
 10
19.94798785985156
 20
6.07751240470169
 30
0.0
 11
18.8873276880719
 21
5.466718834013098
 31
0.0
  0
ELLIPSE
  5
330
330
23
100
AcDbEntity
  8
Visible (ANSI)
100
AcDbEllipse
 10
19.38937350271427
 20
5.97643928662287
 30
0.0
 11
-0.0499032211584182
 21
-0.0866583436145302
 31
0.0
210
0.0
220
0.0
230
0.9999999999999998
 40
0.578093115915639
 41
5.56818260767123
 42
8.565116916636808
  0
LINE
  5
331
330
23
100
AcDbEntity
  8
Visible (ANSI)
100
AcDbLine
 10
18.8873276880719
 20
5.793737683950115
 30
0.0
 11
18.93914650152258
 21
5.823578154006876
 31
0.0
  0
LINE
  5
332
330
23
100
AcDbEntity
  8
Visible (ANSI)
100
AcDbLine
 10
19.04289117993291
 20
8.715995300673528
 30
0.0
 11
19.73585582549562
 21
9.115047100190073
 31
0.0
  0
LINE
  5
333
330
23
100
AcDbEntity
  8
Visible (ANSI)
100
AcDbLine
 10
19.94798785985156
 20
9.204630157224405
 30
0.0
 11
18.8873276880719
 21
8.593836586535815
 31
0.0
  0
LINE
  5
334
330
23
100
AcDbEntity
  8
Visible (ANSI)
100
AcDbLine
 10
18.67519565371591
 20
8.715995300673496
 30
0.0
 11
18.67519565371591
 21
8.793662277533536
 31
0.0
  0
LINE
  5
335
330
23
100
AcDbEntity
  8
Visible (ANSI)
100
AcDbLine
 10
18.67519565371591
 20
5.838229421227755
 30
0.0
 11
18.67519565371591
 21
5.915896398087797
 31
0.0
  0
ELLIPSE
  5
336
330
23
100
AcDbEntity
  8
Visible (ANSI)
100
AcDbEllipse
 10
18.67519565371591
 20
5.752386973119289
 30
0.0
 11
0.0523983822163337
 21
0.09099126079526
 31
0.0
210
0.0
220
0.0
230
0.9999999999999998
 40
0.5780931159156393
 41
3.925057108563997
 42
7.06664976215379
  0
LINE
  5
337
330
23
100
AcDbEntity
  8
Visible (ANSI)
100
AcDbLine
 10
18.76358400136421
 20
5.639777012374829
 30
0.0
 11
18.85904341682438
 21
5.694748433736804
 31
0.0
  0
LINE
  5
338
330
23
100
AcDbEntity
  8
Visible (ANSI)
100
AcDbLine
 10
18.85904341682438
 20
5.694748433736804
 30
0.0
 11
18.85904341682438
 21
5.810025512501837
 31
0.0
  0
LINE
  5
339
330
23
100
AcDbEntity
  8
Visible (ANSI)
100
AcDbLine
 10
18.67519565371591
 20
5.593231498331499
 30
0.0
 11
18.67519565371591
 21
5.666544525010822
 31
0.0
  0
LINE
  5
33A
330
23
100
AcDbEntity
  8
Visible (ANSI)
100
AcDbLine
 10
19.04289117993291
 20
5.588877548150812
 30
0.0
 11
18.85904341682438
 21
5.694748433736804
 31
0.0
  0
LINE
  5
33B
330
23
100
AcDbEntity
  8
Visible (ANSI)
100
AcDbLine
 10
18.67519565371591
 20
8.965347173750471
 30
0.0
 11
18.67519565371591
 21
9.038660200429793
 31
0.0
  0
ELLIPSE
  5
33C
330
23
100
AcDbEntity
  8
Visible (ANSI)
100
AcDbEllipse
 10
18.67519565371591
 20
8.879504725642004
 30
0.0
 11
0.0523983822163337
 21
0.09099126079526
 31
0.0
210
0.0
220
0.0
230
0.9999999999999998
 40
0.5780931159156393
 41
3.925057108563997
 42
7.06664976215379
  0
LINE
  5
33D
330
23
100
AcDbEntity
  8
Visible (ANSI)
100
AcDbLine
 10
18.67519565371591
 20
8.715995300673496
 30
0.0
 11
18.85904341682438
 21
8.821866186259519
 31
0.0
  0
LINE
  5
33E
330
23
100
AcDbEntity
  8
Visible (ANSI)
100
AcDbLine
 10
18.85904341682438
 20
8.821866186259519
 30
0.0
 11
18.85904341682438
 21
8.937143265024552
 31
0.0
  0
LINE
  5
33F
330
23
100
AcDbEntity
  8
Visible (ANSI)
100
AcDbLine
 10
19.73585582549562
 20
9.115047100190073
 30
0.0
 11
19.73585582549562
 21
9.409490293023697
 31
0.0
  0
LINE
  5
340
330
23
100
AcDbEntity
  8
Visible (ANSI)
100
AcDbLine
 10
19.04289117993291
 20
9.010438493507152
 30
0.0
 11
19.04289117993291
 21
8.715995300673528
 31
0.0
  0
LINE
  5
341
330
23
100
AcDbEntity
  8
Visible (ANSI)
100
AcDbLine
 10
19.04289117993291
 20
8.715995300673528
 30
0.0
 11
18.85904341682438
 21
8.821866186259519
 31
0.0
  0
LINE
  5
342
330
23
100
AcDbEntity
  8
Visible (ANSI)
100
AcDbLine
 10
19.73585582549562
 20
5.987929347667359
 30
0.0
 11
19.73585582549562
 21
6.170057090216925
 31
0.0
  0
LINE
  5
343
330
23
100
AcDbEntity
  8
Visible (ANSI)
100
AcDbLine
 10
19.04289117993291
 20
5.771005290700379
 30
0.0
 11
19.04289117993291
 21
5.588877548150812
 31
0.0
  0
LINE
  5
344
330
23
100
AcDbEntity
  8
Visible (ANSI)
100
AcDbLine
 10
18.67519565371591
 20
8.793662277533536
 30
0.0
 11
17.10541859948154
 21
9.697636762152384
 31
0.0
  0
LINE
  5
345
330
23
100
AcDbEntity
  8
Visible (ANSI)
100
AcDbLine
 10
17.10541859948154
 20
6.742203905846603
 30
0.0
 11
18.67519565371591
 21
5.838229421227755
 31
0.0
  0
ELLIPSE
  5
346
330
23
100
AcDbEntity
  8
Visible (ANSI)
100
AcDbEllipse
 10
16.80136268357127
 20
6.831455614668813
 30
0.0
 11
0.0523983822163392
 21
0.0909912607952569
 31
0.0
210
0.0
220
0.0
230
1.0
 40
0.578093115915639
 41
4.585548174775412
 42
5.8905469827806
  0
ELLIPSE
  5
347
330
23
100
AcDbEntity
  8
Visible (ANSI)
100
AcDbEllipse
 10
16.80136268357127
 20
9.958573367191528
 30
0.0
 11
0.0523983822163335
 21
0.0909912607952596
 31
0.0
210
0.0
220
0.0
230
0.9999999999999998
 40
0.578093115915639
 41
4.315883239139601
 42
5.890546982780377
  0
LINE
  5
348
330
23
100
AcDbEntity
  8
Visible (ANSI)
100
AcDbLine
 10
18.67519565371591
 20
5.666544525010822
 30
0.0
 11
17.10541859948154
 21
6.570519009629669
 31
0.0
  0
LINE
  5
349
330
23
100
AcDbEntity
  8
Visible (ANSI)
100
AcDbLine
 10
17.10541859948154
 20
9.869321658369317
 30
0.0
 11
18.67519565371591
 21
8.965347173750471
 31
0.0
  0
LINE
  5
34A
330
23
100
AcDbEntity
  8
Visible (ANSI)
100
AcDbLine
 10
17.10541859948154
 20
9.697636762152384
 30
0.0
 11
17.10541859948154
 21
6.742203905846603
 31
0.0
  0
LINE
  5
34B
330
23
100
AcDbEntity
  8
Visible (ANSI)
100
AcDbLine
 10
16.82964695481873
 20
5.494702951606105
 30
0.0
 11
16.82964695481873
 21
6.53469029233245
 31
0.0
  0
LINE
  5
34C
330
23
100
AcDbEntity
  8
Visible (ANSI)
100
AcDbLine
 10
16.82964695481873
 20
6.927112912256868
 30
0.0
 11
16.82964695481873
 21
9.564385141145637
 31
0.0
  0
LINE
  5
34D
330
23
100
AcDbEntity
  8
Visible (ANSI)
100
AcDbLine
 10
16.82964695481873
 20
9.776947393604697
 30
0.0
 11
16.82964695481873
 21
9.895491726706866
 31
0.0
  0
LINE
  5
34E
330
23
100
AcDbEntity
  8
Visible (ANSI)
100
AcDbLine
 10
16.82964695481873
 20
10.05423066477958
 30
0.0
 11
16.82964695481873
 21
11.31155074486077
 31
0.0
  0
LINE
  5
34F
330
23
100
AcDbEntity
  8
Visible (ANSI)
100
AcDbLine
 10
17.06652772651626
 20
6.63196341006374
 30
0.0
 11
17.13370287072899
 21
6.593279817253473
 31
0.0
  0
ELLIPSE
  5
350
330
23
100
AcDbEntity
  8
Visible (ANSI)
100
AcDbEllipse
 10
17.10541859948154
 20
6.656361457738136
 30
0.0
 11
-0.0523983822163393
 21
-0.0909912607952571
 31
0.0
210
0.0
220
0.0
230
1.0
 40
0.5780931159156393
 41
0.7834644549743786
 42
1.174290585549872
  0
LINE
  5
351
330
23
100
AcDbEntity
  8
Visible (ANSI)
100
AcDbLine
 10
17.10541859948154
 20
6.768306583877876
 30
0.0
 11
16.82964695481873
 21
6.927112912256868
 31
0.0
  0
LINE
  5
352
330
23
100
AcDbEntity
  8
Visible (ANSI)
100
AcDbLine
 10
18.4206372124887
 20
4.578512595573489
 30
0.0
 11
16.82964695481873
 21
5.494702951606105
 31
0.0
  0
ELLIPSE
  5
353
330
23
100
AcDbEntity
  8
Visible (ANSI)
100
AcDbEllipse
 10
18.4206372124887
 20
5.150795582963265
 30
0.0
 11
0.3493225481090827
 21
-0.6066084053016213
 31
0.0
210
0.0
220
0.0
230
1.0
 40
0.5780931159158106
 41
5.499720852205022
 42
6.674535287424633
  0
LINE
  5
354
330
23
100
AcDbEntity
  8
Visible (ANSI)
100
AcDbLine
 10
18.84902569059253
 20
4.650789684469093
 30
0.0
 11
18.87730996183998
 21
4.667077513020789
 31
0.0
  0
LINE
  5
355
330
23
100
AcDbEntity
  8
Visible (ANSI)
100
AcDbLine
 10
17.10541859948154
 20
5.654866229806024
 30
0.0
 11
18.84902569059253
 21
4.650789684469093
 31
0.0
  0
LINE
  5
356
330
23
100
AcDbEntity
  8
Visible (ANSI)
100
AcDbLine
 10
16.82964695481873
 20
9.895491726706866
 30
0.0
 11
17.13370287072899
 21
9.720397569776189
 31
0.0
  0
ELLIPSE
  5
357
330
23
100
AcDbEntity
  8
Visible (ANSI)
100
AcDbEllipse
 10
18.4206372124887
 20
9.823077401438382
 30
0.0
 11
0.3493225481090473
 21
-0.6066084053016439
 31
0.0
210
0.0
220
0.0
230
0.9999999999999998
 40
0.5780931159158107
 41
1.183313763395766
 42
2.358128198615469
  0
LINE
  5
358
330
23
100
AcDbEntity
  8
Visible (ANSI)
100
AcDbLine
 10
16.82964695481873
 20
11.31155074486077
 30
0.0
 11
18.4206372124887
 21
10.39536038882816
 31
0.0
  0
LINE
  5
359
330
23
100
AcDbEntity
  8
Visible (ANSI)
100
AcDbLine
 10
17.10541859948153
 20
9.895424336400592
 30
0.0
 11
16.82964695481873
 21
10.05423066477958
 31
0.0
  0
LINE
  5
35A
330
23
100
AcDbEntity
  8
Visible (ANSI)
100
AcDbLine
 10
17.13370287072899
 20
10.78491132424781
 30
0.0
 11
18.87730996183998
 21
9.780834778910877
 31
0.0
  0
LINE
  5
35B
330
23
100
AcDbEntity
  8
Visible (ANSI)
100
AcDbLine
 10
17.10541859948153
 20
10.76862349569611
 30
0.0
 11
17.10541859948154
 21
9.869321658369317
 31
0.0
  0
LINE
  5
35C
330
23
100
AcDbEntity
  8
Visible (ANSI)
100
AcDbLine
 10
17.10541859948153
 20
10.76862349569611
 30
0.0
 11
17.13370287072899
 21
10.78491132424781
 31
0.0
  0
ELLIPSE
  5
35D
330
23
100
AcDbEntity
  8
Visible (ANSI)
100
AcDbEllipse
 10
17.10541859948154
 20
9.783479210260852
 30
0.0
 11
-0.0523983822163397
 21
-0.0909912607952578
 31
0.0
210
0.0
220
0.0
230
0.9999999999999998
 40
0.578093115915639
 41
0.783464454974415
 42
1.174290585549845
  0
LINE
  5
35E
330
23
100
AcDbEntity
  8
Visible (ANSI)
100
AcDbLine
 10
17.10541859948154
 20
6.570519009629669
 30
0.0
 11
17.10541859948154
 21
5.654866229806024
 31
0.0
  0
LINE
  5
35F
330
23
100
AcDbEntity
  8
Visible (ANSI)
100
AcDbLine
 10
18.87730996183998
 20
9.780834778910877
 30
0.0
 11
18.84902569059253
 21
9.76454695035918
 31
0.0
  0
LINE
  5
360
330
23
100
AcDbEntity
  8
Visible (ANSI)
100
AcDbLine
 10
18.84902569059253
 20
9.76454695035918
 30
0.0
 11
17.10541859948153
 21
10.76862349569611
 31
0.0
  0
LINE
  5
361
330
23
100
AcDbEntity
  8
Visible Narrow (ANSI)
100
AcDbLine
 10
19.55877457808894
 20
6.829179303611358
 30
0.0
 11
19.72312790343431
 21
6.544511466195405
 31
0.0
  0
LINE
  5
362
330
23
100
AcDbEntity
  8
Visible Narrow (ANSI)
100
AcDbLine
 10
19.33421917378176
 20
6.320553823609589
 30
0.0
 11
19.25026499041606
 21
6.46596649335945
 31
0.0
  0
LINE
  5
363
330
23
100
AcDbEntity
  8
Visible Narrow (ANSI)
100
AcDbLine
 10
19.58665629466526
 20
7.564254478469788
 30
0.0
 11
19.76128040818815
 21
7.66559313522438
 31
0.0
  0
ELLIPSE
  5
364
330
23
100
AcDbEntity
  8
Visible (ANSI)
100
AcDbEllipse
 10
19.72312790343431
 20
7.643767870528275
 30
0.0
 11
-0.0323914037566015
 21
-0.1214274154324166
 31
0.0
210
0.0
220
0.0
230
1.0
 40
0.5176373490359202
 41
2.441644106893924
 42
3.617430778639381
  0
LINE
  5
365
330
23
100
AcDbEntity
  8
Visible (ANSI)
100
AcDbLine
 10
19.72312790343431
 20
7.759386493711421
 30
0.0
 11
19.51594561654662
 21
7.639153530273691
 31
0.0
  0
ELLIPSE
  5
366
330
23
100
AcDbEntity
  8
Visible (ANSI)
100
AcDbEllipse
 10
19.51594561654662
 20
7.523534907090548
 30
0.0
 11
-0.0323914037566015
 21
-0.1214274154324167
 31
0.0
210
0.0
220
0.0
230
1.0
 40
0.5176373490359201
 41
2.046634451844699
 42
3.617430778639382
  0
LINE
  5
367
330
23
100
AcDbEntity
  8
Visible Narrow (ANSI)
100
AcDbLine
 10
19.76128040818815
 20
6.757241977630572
 30
0.0
 11
19.70281796245965
 21
6.858501735902015
 31
0.0
  0
ELLIPSE
  5
368
330
23
100
AcDbEntity
  8
Visible (ANSI)
100
AcDbEllipse
 10
19.72312790343431
 20
6.660130089378552
 30
0.0
 11
0.0323914037566016
 21
0.1214274154324164
 31
0.0
210
0.0
220
0.0
230
1.0
 40
0.517637349035921
 41
3.617430778639384
 42
4.793217450385187
  0
ELLIPSE
  5
369
330
23
100
AcDbEntity
  8
Visible (ANSI)
100
AcDbEllipse
 10
19.33421917378176
 20
6.436172446792735
 30
0.0
 11
0.0323914037566016
 21
0.1214274154324164
 31
0.0
210
0.0
220
0.0
230
0.9999999999999998
 40
0.5176373490359212
 41
2.441644106893916
 42
3.617430778639382
  0
ELLIPSE
  5
36A
330
23
100
AcDbEntity
  8
Visible (ANSI)
100
AcDbEllipse
 10
19.33421917378176
 20
7.419810227942458
 30
0.0
 11
-0.0323914037566015
 21
-0.1214274154324167
 31
0.0
210
0.0
220
0.0
230
1.0
 40
0.5176373490359203
 41
3.617430778639381
 42
4.793217450385185
  0
LINE
  5
36B
330
23
100
AcDbEntity
  8
Visible (ANSI)
100
AcDbLine
 10
19.26350849566312
 20
6.757992248091556
 30
0.0
 11
19.37285498818436
 21
6.820960705271637
 31
0.0
  0
LINE
  5
36C
330
23
100
AcDbEntity
  8
Visible (ANSI)
100
AcDbLine
 10
19.79383858155295
 20
7.606347396502978
 30
0.0
 11
19.79383858155295
 21
7.507554576438169
 31
0.0
  0
LINE
  5
36D
330
23
100
AcDbEntity
  8
Visible (ANSI)
100
AcDbLine
 10
19.79383858155295
 20
6.877030500357787
 30
0.0
 11
19.79383858155295
 21
6.778989706162327
 31
0.0
  0
LINE
  5
36E
330
23
100
AcDbEntity
  8
Visible (ANSI)
100
AcDbLine
 10
19.26350849566312
 20
6.473592920818033
 30
0.0
 11
19.26350849566312
 21
6.887271765988356
 31
0.0
  0
LINE
  5
36F
330
23
100
AcDbEntity
  8
Visible (ANSI)
100
AcDbLine
 10
19.26350849566312
 20
6.887271765988356
 30
0.0
 11
19.26350849566312
 21
7.300950611158683
 31
0.0
  0
LINE
  5
370
330
23
100
AcDbEntity
  8
Visible (ANSI)
100
AcDbLine
 10
19.3252943929514
 20
7.529364792359184
 30
0.0
 11
19.51594561654662
 21
7.639153530273691
 31
0.0
  0
LINE
  5
371
330
23
100
AcDbEntity
  8
Visible (ANSI)
100
AcDbLine
 10
20.05900362449787
 20
7.759045789175125
 30
0.0
 11
20.05900362449787
 21
7.881677857901507
 31
0.0
  0
LINE
  5
372
330
23
100
AcDbEntity
  8
Visible (ANSI)
100
AcDbLine
 10
20.05900362449787
 20
6.809056030108094
 30
0.0
 11
20.05900362449787
 21
6.931009265516424
 31
0.0
  0
LINE
  5
373
330
23
100
AcDbEntity
  8
Visible (ANSI)
100
AcDbLine
 10
20.05900362449787
 20
7.759045789175125
 30
0.0
 11
19.79383858155295
 21
7.606347396502978
 31
0.0
  0
LINE
  5
374
330
23
100
AcDbEntity
  8
Visible (ANSI)
100
AcDbLine
 10
19.76128040818815
 20
7.625096401597802
 30
0.0
 11
20.05900362449787
 21
7.759045789175125
 31
0.0
  0
LINE
  5
375
330
23
100
AcDbEntity
  8
Visible (ANSI)
100
AcDbLine
 10
19.79383858155295
 20
7.606347396502978
 30
0.0
 11
19.76128040818815
 21
7.625096401597802
 31
0.0
  0
LINE
  5
376
330
23
100
AcDbEntity
  8
Visible (ANSI)
100
AcDbLine
 10
19.78839335368421
 20
7.725843767046607
 30
0.0
 11
20.05900362449787
 21
7.881677857901507
 31
0.0
  0
ELLIPSE
  5
377
330
23
100
AcDbEntity
  8
Visible (ANSI)
100
AcDbEllipse
 10
19.76160961347108
 20
7.666099750851524
 30
0.0
 11
0.1213283902103164
 21
-0.0323649882561313
 31
0.0
210
0.0
220
0.0
230
1.0
 40
0.5164813382865364
 41
1.487238461360849
 42
1.923368036854878
  0
ELLIPSE
  5
378
330
23
100
AcDbEntity
  8
Visible (ANSI)
100
AcDbEllipse
 10
19.68188755050556
 20
7.619835082062971
 30
0.0
 11
-0.0425625679191565
 21
-0.1221308514631223
 31
0.0
210
0.0
220
0.0
230
1.0
 40
0.5487540594985491
 41
2.136607463820254
 42
2.967746694363403
  0
LINE
  5
379
330
23
100
AcDbEntity
  8
Visible (ANSI)
100
AcDbLine
 10
19.76128040818815
 20
7.625096401597802
 30
0.0
 11
19.76128040818815
 21
7.66559313522438
 31
0.0
  0
LINE
  5
37A
330
23
100
AcDbEntity
  8
Visible (ANSI)
100
AcDbLine
 10
20.05900362449787
 20
6.809056030108094
 30
0.0
 11
19.78839335368421
 21
6.653221939253197
 31
0.0
  0
LINE
  5
37B
330
23
100
AcDbEntity
  8
Visible (ANSI)
100
AcDbLine
 10
19.73540108741545
 20
6.663463213404254
 30
0.0
 11
20.05900362449787
 21
6.809056030108094
 31
0.0
  0
ELLIPSE
  5
37C
330
23
100
AcDbEntity
  8
Visible (ANSI)
100
AcDbEllipse
 10
19.76160961347108
 20
6.593477923058113
 30
0.0
 11
-0.1213283902103183
 21
0.0323649882561251
 31
0.0
210
0.0
220
0.0
230
1.0
 40
0.516481338286536
 41
4.628831114950401
 42
5.064960690444394
  0
LINE
  5
37D
330
23
100
AcDbEntity
  8
Visible (ANSI)
100
AcDbLine
 10
19.79383858155295
 20
6.778989706162327
 30
0.0
 11
20.05718024985123
 21
6.930638087208929
 31
0.0
  0
LINE
  5
37E
330
23
100
AcDbEntity
  8
Visible (ANSI)
100
AcDbLine
 10
19.76128040818815
 20
6.79773871125715
 30
0.0
 11
19.79383858155295
 21
6.778989706162327
 31
0.0
  0
LINE
  5
37F
330
23
100
AcDbEntity
  8
Visible (ANSI)
100
AcDbLine
 10
19.76128040818815
 20
6.757241977630572
 30
0.0
 11
19.76128040818815
 21
6.79773871125715
 31
0.0
  0
ELLIPSE
  5
380
330
23
100
AcDbEntity
  8
Visible (ANSI)
100
AcDbEllipse
 10
19.68188755050556
 20
6.731560357417409
 30
0.0
 11
0.028992049544389
 21
0.1170122173299596
 31
0.0
210
0.0
220
0.0
230
1.0
 40
0.6316433759205155
 41
4.255067318130103
 42
5.086206548673471
  0
LINE
  5
381
330
23
100
AcDbEntity
  8
Visible (ANSI)
100
AcDbLine
 10
19.82727202722244
 20
6.147028029415336
 30
0.0
 11
19.73585582549562
 21
6.094384939991301
 31
0.0
  0
ELLIPSE
  5
382
330
23
100
AcDbEntity
  8
Visible (ANSI)
100
AcDbEllipse
 10
19.42472884177345
 20
5.729013496548467
 30
0.0
 11
0.349322548109083
 21
-0.6066084053016219
 31
0.0
210
0.0
220
0.0
230
1.0
 40
0.5780931159158105
 41
0.0
 42
0.3913499802450451
  0
LINE
  5
383
330
23
100
AcDbEntity
  8
Visible (ANSI)
100
AcDbLine
 10
19.90968586237219
 20
10.37534052104777
 30
0.0
 11
19.88140159112473
 21
10.35905269249608
 31
0.0
  0
LINE
  5
384
330
23
100
AcDbEntity
  8
Visible (ANSI)
100
AcDbLine
 10
19.86857324193547
 20
10.39901570458442
 30
0.0
 11
19.90968586237219
 21
10.37534052104777
 31
0.0
  0
ELLIPSE
  5
385
330
23
100
AcDbEntity
  8
Visible (ANSI)
100
AcDbEllipse
 10
19.42472884177345
 20
10.40129531502358
 30
0.0
 11
-0.3493225481090838
 21
0.6066084053016231
 31
0.0
210
0.0
220
0.0
230
1.0
 40
0.5780931159158106
 41
4.324906416985415
 42
5.499720852205017
  0
LINE
  5
386
330
23
100
AcDbEntity
  8
Visible (ANSI)
100
AcDbLine
 10
19.42472884177345
 20
10.97357830241336
 30
0.0
 11
17.83373858410348
 21
11.88976865844598
 31
0.0
  0
LINE
  5
387
330
23
100
AcDbEntity
  8
Visible (ANSI)
100
AcDbLine
 10
19.88140159112473
 20
5.245295426605989
 30
0.0
 11
19.90968586237219
 21
5.261583255157685
 31
0.0
  0
LINE
  5
388
330
23
100
AcDbEntity
  8
Visible (ANSI)
100
AcDbLine
 10
16.82964695481873
 20
6.53469029233245
 30
0.0
 11
16.91803530246704
 21
6.585589756556499
 31
0.0
  0
LINE
  5
389
330
23
100
AcDbEntity
  8
Visible (ANSI)
100
AcDbLine
 10
16.91803530246704
 20
6.585589756556499
 30
0.0
 11
16.91803530246704
 21
6.748940771559434
 31
0.0
  0
LINE
  5
38A
330
23
100
AcDbEntity
  8
Visible (ANSI)
100
AcDbLine
 10
16.82964695481873
 20
9.564385141145637
 30
0.0
 11
16.91803530246704
 21
9.615284605369685
 31
0.0
  0
LINE
  5
38B
330
23
100
AcDbEntity
  8
Visible (ANSI)
100
AcDbLine
 10
16.91803530246704
 20
9.615284605369685
 30
0.0
 11
16.91803530246704
 21
9.726047929380678
 31
0.0
  0
ELLIPSE
  5
38C
330
23
100
AcDbEntity
  8
Visible (ANSI)
100
AcDbEllipse
 10
17.0382434552688
 20
6.695045050548412
 30
0.0
 11
-0.0523983822163494
 21
-0.0909912607952746
 31
0.0
210
0.0
220
0.0
230
0.9999999999999998
 40
0.5780931159156389
 41
1.174290585549885
 42
1.443955521185577
  0
LINE
  5
38D
330
23
100
AcDbEntity
  8
Visible (ANSI)
100
AcDbLine
 10
17.06652772651626
 20
6.63196341006374
 30
0.0
 11
17.06652772651626
 21
6.500473118817355
 31
0.0
  0
LINE
  5
38E
330
23
100
AcDbEntity
  8
Visible Narrow (ANSI)
100
AcDbLine
 10
16.97813937886793
 20
6.449179192436072
 30
0.0
 11
17.06652706550867
 21
6.50007827601118
 31
0.0
  0
ELLIPSE
  5
38F
330
23
100
AcDbEntity
  8
Visible (ANSI)
100
AcDbEllipse
 10
16.97813937886793
 20
6.551372583041388
 30
0.0
 11
0.06237902644805
 21
-0.1083229295181459
 31
0.0
210
0.0
220
0.0
230
1.0
 40
0.5780931159158106
 41
5.499720852205022
 42
7.07051717899994
  0
LINE
  5
390
330
23
100
AcDbEntity
  8
Visible (ANSI)
100
AcDbLine
 10
16.84691308483243
 20
6.789897332784335
 30
0.0
 11
17.08379385652996
 21
6.653486768663924
 31
0.0
  0
LINE
  5
391
330
23
100
AcDbEntity
  8
Visible (ANSI)
100
AcDbLine
 10
16.91803530246704
 20
6.585589756556499
 30
0.0
 11
17.06652706805275
 21
6.500079035844021
 31
0.0
  0
LINE
  5
392
330
23
100
AcDbEntity
  8
Visible (ANSI)
100
AcDbLine
 10
16.97813937886793
 20
6.449179192436072
 30
0.0
 11
16.82964695481873
 21
6.53469029233245
 31
0.0
  0
ELLIPSE
  5
393
330
23
100
AcDbEntity
  8
Visible (ANSI)
100
AcDbEllipse
 10
17.05945665870437
 20
9.640126588840624
 30
0.0
 11
0.0648741875058888
 21
-0.1126558466987271
 31
0.0
210
0.0
220
0.0
230
1.0
 40
0.5780931159158107
 41
5.499720852204992
 42
5.537331178628042
  0
LINE
  5
394
330
23
100
AcDbEntity
  8
Visible Narrow (ANSI)
100
AcDbLine
 10
16.97106831105606
 20
9.482945998387181
 30
0.0
 11
17.05945665870437
 21
9.533845462611232
 31
0.0
  0
ELLIPSE
  5
395
330
23
100
AcDbEntity
  8
Visible (ANSI)
100
AcDbEllipse
 10
16.97106831105606
 20
9.589227124616712
 30
0.0
 11
0.0648741875059658
 21
-0.1126558466988764
 31
0.0
210
0.0
220
0.0
230
0.9999999999999998
 40
0.5780931159158106
 41
5.499720852205256
 42
8.64131350579505
  0
LINE
  5
396
330
23
100
AcDbEntity
  8
Visible (ANSI)
100
AcDbLine
 10
16.82964695481873
 20
9.776947393604697
 30
0.0
 11
16.97106831105606
 21
9.695508250846243
 31
0.0
  0
LINE
  5
397
330
23
100
AcDbEntity
  8
Visible (ANSI)
100
AcDbLine
 10
16.91803530246704
 20
9.615284605369685
 30
0.0
 11
17.05945665870437
 21
9.533845462611232
 31
0.0
  0
LINE
  5
398
330
23
100
AcDbEntity
  8
Visible (ANSI)
100
AcDbLine
 10
16.97106831105606
 20
9.482945998387181
 30
0.0
 11
16.82964695481873
 21
9.564385141145637
 31
0.0
  0
LINE
  5
399
330
23
100
AcDbEntity
  8
Visible (ANSI)
100
AcDbLine
 10
17.70645936348992
 20
11.34264582974419
 30
0.0
 11
17.70645936348992
 21
11.81647342996334
 31
0.0
  0
ELLIPSE
  5
39A
330
23
100
AcDbEntity
  8
Visible (ANSI)
100
AcDbEllipse
 10
19.29744962115989
 20
10.32800008654095
 30
0.0
 11
0.3493225481090471
 21
-0.6066084053016433
 31
0.0
210
0.0
220
0.0
230
1.0
 40
0.5780931159158105
 41
1.270159834565481
 42
2.358128198615469
  0
LINE
  5
39B
330
23
100
AcDbEntity
  8
Visible (ANSI)
100
AcDbLine
 10
19.73584156907871
 20
10.34124976928806
 30
0.0
 11
19.6368466197126
 21
10.28424236935712
 31
0.0
  0
ELLIPSE
  5
39C
330
23
100
AcDbEntity
  8
Visible (ANSI)
100
AcDbEllipse
 10
19.19845467179379
 20
10.27099268661001
 30
0.0
 11
0.3493225481090834
 21
-0.606608405301622
 31
0.0
210
0.0
220
0.0
230
1.0
 40
0.5780931159158116
 41
0.7873318718203315
 42
1.270159834565351
  0
LINE
  5
39D
330
23
100
AcDbEntity
  8
Visible (ANSI)
100
AcDbLine
 10
17.70645936348992
 20
11.81647342996334
 30
0.0
 11
19.29744962115989
 21
10.90028307393073
 31
0.0
  0
ELLIPSE
  5
39E
330
23
100
AcDbEntity
  8
Visible (ANSI)
100
AcDbEllipse
 10
18.54791643310226
 20
5.224090811445891
 30
0.0
 11
0.3493225481090783
 21
-0.6066084053016154
 31
0.0
210
0.0
220
0.0
230
1.0
 40
0.5780931159158107
 41
0.0000000000000029
 42
0.3045039090753229
  0
LINE
  5
39F
330
23
100
AcDbEntity
  8
Visible (ANSI)
100
AcDbLine
 10
18.98630838102108
 20
4.705934863045351
 30
0.0
 11
19.08530333038718
 21
4.762942262976288
 31
0.0
  0
ELLIPSE
  5
3A0
330
23
100
AcDbEntity
  8
Visible (ANSI)
100
AcDbEllipse
 10
18.64691138246836
 20
5.281098211376835
 30
0.0
 11
0.3493225481090847
 21
-0.6066084053016248
 31
0.0
210
0.0
220
0.0
230
1.0
 40
0.5780931159158106
 41
0.3045039090753196
 42
0.7873318718203343
  0
LINE
  5
3A1
330
23
100
AcDbEntity
  8
Visible (ANSI)
100
AcDbLine
 10
19.73584156907871
 20
10.34124976928806
 30
0.0
 11
18.83783021338857
 21
10.85838011607975
 31
0.0
  0
LINE
  5
3A2
330
23
100
AcDbEntity
  8
Visible (ANSI)
100
AcDbLine
 10
19.6368466197126
 20
5.080554919734355
 30
0.0
 11
19.73584156907871
 21
5.137562319665289
 31
0.0
  0
LINE
  5
3A3
330
23
100
AcDbEntity
  8
Visible (ANSI)
100
AcDbLine
 10
19.6368466197126
 20
5.080554919734355
 30
0.0
 11
19.58736340144644
 21
5.109050409975326
 31
0.0
  0
LINE
  5
3A4
330
23
100
AcDbEntity
  8
Visible (ANSI)
100
AcDbLine
 10
19.6368466197126
 20
10.28424236935712
 30
0.0
 11
19.58736340144644
 21
10.31273785959809
 31
0.0
  0
LINE
  5
3A5
330
23
100
AcDbEntity
  8
Visible Narrow (ANSI)
100
AcDbLine
 10
19.69342941862444
 20
9.945078330713299
 30
0.0
 11
19.58736340144644
 21
10.00615768778214
 31
0.0
  0
LINE
  5
3A6
330
23
100
AcDbEntity
  8
Visible (ANSI)
100
AcDbLine
 10
19.69342941862444
 20
9.985955686955426
 30
0.0
 11
19.69342941862444
 21
9.945078330713299
 31
0.0
  0
ELLIPSE
  5
3A7
330
23
100
AcDbEntity
  8
Visible (ANSI)
100
AcDbEllipse
 10
19.41765777396173
 20
9.786272002334266
 30
0.0
 11
-0.1946225625178513
 21
-0.3379675400966564
 31
0.0
210
0.0
220
0.0
230
1.0
 40
0.5780931159156392
 41
5.495853435359348
 42
8.63744608894914
  0
LINE
  5
3A8
330
23
100
AcDbEntity
  8
Visible (ANSI)
100
AcDbLine
 10
19.08530333038718
 20
9.966629712599054
 30
0.0
 11
19.03582011212102
 21
9.995125202840023
 31
0.0
  0
ELLIPSE
  5
3A9
330
23
100
AcDbEntity
  8
Visible (ANSI)
100
AcDbEllipse
 10
18.64691138246836
 20
9.953380029851949
 30
0.0
 11
-0.3493225481091192
 21
0.6066084053016009
 31
0.0
210
0.0
220
0.0
230
0.9999999999999998
 40
0.5780931159158106
 41
3.928924525409886
 42
4.411752488155019
  0
LINE
  5
3AA
330
23
100
AcDbEntity
  8
Visible (ANSI)
100
AcDbLine
 10
19.14188612929901
 20
9.62746567395523
 30
0.0
 11
19.14188612929901
 21
9.668343030197359
 31
0.0
  0
LINE
  5
3AB
330
23
100
AcDbEntity
  8
Visible (ANSI)
100
AcDbLine
 10
19.08530333038718
 20
9.966629712599054
 30
0.0
 11
18.98630838102108
 21
9.909622312668117
 31
0.0
  0
LINE
  5
3AC
330
23
100
AcDbEntity
  8
Visible (ANSI)
100
AcDbLine
 10
19.14188612929901
 20
4.996061211722241
 30
0.0
 11
19.14188612929901
 21
5.036938567964369
 31
0.0
  0
ELLIPSE
  5
3AD
330
23
100
AcDbEntity
  8
Visible (ANSI)
100
AcDbEllipse
 10
19.19845467179379
 20
5.598710868134898
 30
0.0
 11
0.3493225481090814
 21
-0.6066084053016189
 31
0.0
210
0.0
220
0.0
230
1.0
 40
0.5780931159158106
 41
0.3045039090753132
 42
0.7873318718203333
  0
LINE
  5
3AE
330
23
100
AcDbEntity
  8
Visible (ANSI)
100
AcDbLine
 10
19.69342941862444
 20
5.354551224722436
 30
0.0
 11
19.69342941862444
 21
5.313673868480309
 31
0.0
  0
LINE
  5
3AF
330
23
100
AcDbEntity
  8
Visible Narrow (ANSI)
100
AcDbLine
 10
19.69342941862444
 20
5.354551224722436
 30
0.0
 11
19.58736340144644
 21
5.415630581791278
 31
0.0
  0
ELLIPSE
  5
3B0
330
23
100
AcDbEntity
  8
Visible (ANSI)
100
AcDbEllipse
 10
19.41765777396173
 20
5.195744896343403
 30
0.0
 11
0.1946225625178513
 21
0.3379675400966564
 31
0.0
210
0.0
220
0.0
230
0.9999999999999998
 40
0.578093115915639
 41
5.495853435359346
 42
8.63744608894914
  0
LINE
  5
3B1
330
23
100
AcDbEntity
  8
Visible (ANSI)
100
AcDbLine
 10
19.29744962115989
 20
5.083435280676058
 30
0.0
 11
19.16037621346755
 21
5.162370606389597
 31
0.0
  0
ELLIPSE
  5
3B2
330
23
100
AcDbEntity
  8
Visible (ANSI)
100
AcDbEllipse
 10
19.29744962115989
 20
5.655718268065835
 30
0.0
 11
0.3493225481090829
 21
-0.6066084053016216
 31
0.0
210
0.0
220
0.0
230
0.9999999999999998
 40
0.5780931159158106
 41
5.499720852205022
 42
6.587689216254903
  0
LINE
  5
3B3
330
23
100
AcDbEntity
  8
Visible (ANSI)
100
AcDbLine
 10
18.54791643310226
 20
10.46865561731079
 30
0.0
 11
16.95692617543229
 21
11.38484597334341
 31
0.0
  0
ELLIPSE
  5
3B4
330
23
100
AcDbEntity
  8
Visible (ANSI)
100
AcDbEllipse
 10
18.54791643310226
 20
9.896372629921014
 30
0.0
 11
-0.3493225481090833
 21
0.6066084053016222
 31
0.0
210
0.0
220
0.0
230
0.9999999999999998
 40
0.5780931159158106
 41
4.411752488155146
 42
5.499720852205022
  0
ELLIPSE
  5
3B5
330
23
100
AcDbEntity
  8
Visible (ANSI)
100
AcDbEllipse
 10
17.38119024414432
 20
5.332424248568214
 30
0.0
 11
-0.0499032211584405
 21
0.0866583436145172
 31
0.0
210
0.0
220
0.0
230
0.9999999999999998
 40
0.5780931159158107
 41
3.141592653589803
 42
6.283185307179597
  0
ELLIPSE
  5
3B6
330
23
100
AcDbEntity
  8
Visible (ANSI)
100
AcDbEllipse
 10
18.08829702533097
 20
4.925228534775941
 30
0.0
 11
-0.0499032211584406
 21
0.0866583436145174
 31
0.0
210
0.0
220
0.0
230
1.0
 40
0.5780931159158106
 41
3.1415926535898
 42
6.283185307179593
  0
ELLIPSE
  5
3B7
330
23
100
AcDbEntity
  8
Visible (ANSI)
100
AcDbEllipse
 10
18.06001275408351
 20
10.41512059203875
 30
0.0
 11
0.0499032211584353
 21
-0.0866583436145205
 31
0.0
210
0.0
220
0.0
230
1.0
 40
0.5780931159158106
 41
0.0000000000002184
 42
6.283185307179586
  0
ELLIPSE
  5
3B8
330
23
100
AcDbEntity
  8
Visible (ANSI)
100
AcDbEllipse
 10
18.08829702533097
 20
10.43140842059044
 30
0.0
 11
-0.0499032211584406
 21
0.0866583436145174
 31
0.0
210
0.0
220
0.0
230
1.0
 40
0.5780931159158106
 41
3.1415926535898
 42
6.283185307179593
  0
ELLIPSE
  5
3B9
330
23
100
AcDbEntity
  8
Visible (ANSI)
100
AcDbEllipse
 10
18.06001275408351
 20
4.908940706224245
 30
0.0
 11
0.0499032211584353
 21
-0.0866583436145205
 31
0.0
210
0.0
220
0.0
230
1.0
 40
0.5780931159158106
 41
0.0000000000002184
 42
6.283185307179586
  0
ELLIPSE
  5
3BA
330
23
100
AcDbEntity
  8
Visible (ANSI)
100
AcDbEllipse
 10
17.35290597289686
 20
5.316136420016518
 30
0.0
 11
0.0499032211584353
 21
-0.0866583436145205
 31
0.0
210
0.0
220
0.0
230
1.0
 40
0.5780931159158106
 41
0.0000000000002184
 42
6.283185307179586
  0
ELLIPSE
  5
3BB
330
23
100
AcDbEntity
  8
Visible (ANSI)
100
AcDbEllipse
 10
17.35290597289686
 20
10.82231630583102
 30
0.0
 11
0.0499032211584353
 21
-0.0866583436145205
 31
0.0
210
0.0
220
0.0
230
1.0
 40
0.5780931159158106
 41
0.0000000000002184
 42
6.283185307179586
  0
ELLIPSE
  5
3BC
330
23
100
AcDbEntity
  8
Visible (ANSI)
100
AcDbEllipse
 10
17.38119024414432
 20
10.83860413438272
 30
0.0
 11
-0.0499032211584407
 21
0.0866583436145174
 31
0.0
210
0.0
220
0.0
230
0.9999999999999998
 40
0.5780931159158106
 41
3.141592653589796
 42
6.28318530717959
  0
LINE
  5
3BD
330
23
100
AcDbEntity
  8
Visible (ANSI)
100
AcDbLine
 10
18.13820024648941
 20
10.34475007697593
 30
0.0
 11
18.10991597524196
 21
10.32846224842423
 31
0.0
  0
LINE
  5
3BE
330
23
100
AcDbEntity
  8
Visible (ANSI)
100
AcDbLine
 10
18.03839380417253
 20
10.51806676420496
 30
0.0
 11
18.01010953292507
 21
10.50177893565327
 31
0.0
  0
LINE
  5
3BF
330
23
100
AcDbEntity
  8
Visible (ANSI)
100
AcDbLine
 10
18.13820024648941
 20
4.838570191161423
 30
0.0
 11
18.10991597524196
 21
4.822282362609728
 31
0.0
  0
LINE
  5
3C0
330
23
100
AcDbEntity
  8
Visible (ANSI)
100
AcDbLine
 10
18.03839380417253
 20
5.011886878390458
 30
0.0
 11
18.01010953292507
 21
4.995599049838761
 31
0.0
  0
LINE
  5
3C1
330
23
100
AcDbEntity
  8
Visible (ANSI)
100
AcDbLine
 10
17.43109346530276
 20
5.245765904953697
 30
0.0
 11
17.4028091940553
 21
5.229478076402001
 31
0.0
  0
LINE
  5
3C2
330
23
100
AcDbEntity
  8
Visible (ANSI)
100
AcDbLine
 10
17.33128702298588
 20
5.419082592182731
 30
0.0
 11
17.30300275173842
 21
5.402794763631035
 31
0.0
  0
LINE
  5
3C3
330
23
100
AcDbEntity
  8
Visible (ANSI)
100
AcDbLine
 10
17.43109346530276
 20
10.7519457907682
 30
0.0
 11
17.4028091940553
 21
10.73565796221651
 31
0.0
  0
LINE
  5
3C4
330
23
100
AcDbEntity
  8
Visible (ANSI)
100
AcDbLine
 10
17.33128702298588
 20
10.92526247799724
 30
0.0
 11
17.30300275173842
 21
10.90897464944554
 31
0.0
  0
LINE
  5
3C5
330
23
100
AcDbEntity
  8
Visible (ANSI)
100
AcDbLine
 10
18.3499265343698
 20
11.16840110558201
 30
0.0
 11
18.45245701764187
 21
11.10935772708213
 31
0.0
  0
LINE
  5
3C6
330
23
100
AcDbEntity
  8
Visible (ANSI)
100
AcDbLine
 10
18.45245701764187
 20
10.86409358962937
 30
0.0
 11
18.45245701764187
 21
11.10935772708213
 31
0.0
  0
LINE
  5
3C7
330
23
100
AcDbEntity
  8
Visible (ANSI)
100
AcDbLine
 10
18.45245701764187
 20
11.10935772708213
 30
0.0
 11
17.94388813087003
 21
10.81649238287741
 31
0.0
  0
LINE
  5
3C8
330
23
100
AcDbEntity
  8
Visible (ANSI)
100
AcDbLine
 10
17.84135764759797
 20
10.87553576137729
 30
0.0
 11
18.3499265343698
 21
11.16840110558201
 31
0.0
  0
LINE
  5
3C9
330
23
100
AcDbEntity
  8
Visible (ANSI)
100
AcDbLine
 10
18.55145196700797
 20
10.92110098956031
 30
0.0
 11
18.45245701764187
 21
10.86409358962937
 31
0.0
  0
LINE
  5
3CA
330
23
100
AcDbEntity
  8
Visible (ANSI)
100
AcDbLine
 10
18.45245701764187
 20
10.97810838949121
 30
0.0
 11
18.55145196700797
 21
10.92110098956031
 31
0.0
  0
LINE
  5
3CB
330
23
100
AcDbEntity
  8
Visible (ANSI)
100
AcDbLine
 10
18.55145196700797
 20
10.92110098956031
 30
0.0
 11
18.55145196700797
 21
10.46660503949994
 31
0.0
  0
LINE
  5
3CC
330
23
100
AcDbEntity
  8
Visible (ANSI)
100
AcDbLine
 10
18.91069538706157
 20
10.07679216102398
 30
0.0
 11
19.50635338157387
 21
9.733775535098731
 31
0.0
  0
LINE
  5
3CD
330
23
100
AcDbEntity
  8
Visible (ANSI)
100
AcDbLine
 10
19.58736340144644
 20
5.157913895630398
 30
0.0
 11
19.24992132406682
 21
5.352233864294186
 31
0.0
  0
LINE
  5
3CE
330
23
100
AcDbEntity
  8
Visible (ANSI)
100
AcDbLine
 10
19.58736340144644
 20
5.415630581791278
 30
0.0
 11
19.58736340144644
 21
5.109050409975326
 31
0.0
  0
ELLIPSE
  5
3CF
330
23
100
AcDbEntity
  8
Visible (ANSI)
100
AcDbEllipse
 10
19.31159175678373
 20
5.256824253412245
 30
0.0
 11
0.1946225625178306
 21
0.3379675400966672
 31
0.0
210
0.0
220
0.0
230
0.9999999999999998
 40
0.5780931159156392
 41
5.495853435359098
 42
6.008296657356256
  0
LINE
  5
3D0
330
23
100
AcDbEntity
  8
Visible (ANSI)
100
AcDbLine
 10
18.78126167089365
 20
10.82580445897636
 30
0.0
 11
19.62978980831763
 21
10.33716960242563
 31
0.0
  0
LINE
  5
3D1
330
23
100
AcDbEntity
  8
Visible (ANSI)
100
AcDbLine
 10
18.78126167089365
 20
10.26669684181243
 30
0.0
 11
18.78126167089365
 21
10.82580445897636
 31
0.0
  0
LINE
  5
3D2
330
23
100
AcDbEntity
  8
Visible (ANSI)
100
AcDbLine
 10
18.99339370524984
 20
9.97069346001248
 30
0.0
 11
18.95178833723699
 21
9.994652398006468
 31
0.0
  0
ELLIPSE
  5
3D3
330
23
100
AcDbEntity
  8
Visible (ANSI)
100
AcDbEllipse
 10
19.31159175678373
 20
9.847351359403106
 30
0.0
 11
-0.1946225625178513
 21
-0.3379675400966562
 31
0.0
210
0.0
220
0.0
230
1.0
 40
0.5780931159156392
 41
0.2748886498236782
 42
2.354260781769555
  0
LINE
  5
3D4
330
23
100
AcDbEntity
  8
Visible (ANSI)
100
AcDbLine
 10
19.58736340144644
 20
10.31273785959809
 30
0.0
 11
19.58736340144644
 21
10.00615768778214
 31
0.0
  0
LINE
  5
3D5
330
23
100
AcDbEntity
  8
Visible (ANSI)
100
AcDbLine
 10
19.62978980831763
 20
10.33716960242563
 30
0.0
 11
19.58736340144644
 21
10.31273785959809
 31
0.0
  0
LINE
  5
3D6
330
23
100
AcDbEntity
  8
Visible (ANSI)
100
AcDbLine
 10
19.03582011212102
 20
9.995125202840023
 30
0.0
 11
18.99339370524984
 21
9.97069346001248
 31
0.0
  0
LINE
  5
3D7
330
23
100
AcDbEntity
  8
Visible (ANSI)
100
AcDbLine
 10
18.83783021338857
 20
10.85838011607975
 30
0.0
 11
18.78126167089365
 21
10.82580445897636
 31
0.0
  0
ELLIPSE
  5
3D8
330
23
100
AcDbEntity
  8
Visible (ANSI)
100
AcDbEllipse
 10
19.41765777396173
 20
8.24928340763029
 30
0.0
 11
-0.0499032211584182
 21
-0.0866583436145303
 31
0.0
210
0.0
220
0.0
230
1.0
 40
0.578093115915639
 41
0.0
 42
6.283185307179569
  0
ELLIPSE
  5
3D9
330
23
100
AcDbEntity
  8
Visible (ANSI)
100
AcDbEllipse
 10
19.0673317015896
 20
7.260614142584544
 30
0.0
 11
0.0139392357386452
 21
0.0309821057943714
 31
0.0
210
0.0
220
0.0
230
0.9999999999999998
 40
0.5033322690287144
 41
4.001803196893895
 42
5.422974763874955
  0
ELLIPSE
  5
3DA
330
23
100
AcDbEntity
  8
Visible (ANSI)
100
AcDbEllipse
 10
19.09097202419781
 20
7.249978066652181
 30
0.0
 11
-0.0139392357386469
 21
-0.0309821057943707
 31
0.0
210
0.0
220
0.0
230
1.0
 40
0.5033322690287127
 41
0.0000000000000062
 42
6.283185307179585
  0
LINE
  5
3DB
330
23
100
AcDbEntity
  8
Visible (ANSI)
100
AcDbLine
 10
19.14488237299076
 20
7.335761437642322
 30
0.0
 11
19.16379299528333
 21
7.349699878016276
 31
0.0
  0
LINE
  5
3DC
330
23
100
AcDbEntity
  8
Visible (ANSI)
100
AcDbLine
 10
19.14774612583224
 20
7.356919564684142
 30
0.0
 11
19.16379299528333
 21
7.349699878016276
 31
0.0
  0
LINE
  5
3DD
330
23
100
AcDbEntity
  8
Visible (ANSI)
100
AcDbLine
 10
19.1258635655239
 20
7.344318236283061
 30
0.0
 11
19.14488237299076
 21
7.335761437642322
 31
0.0
  0
LINE
  5
3DE
330
23
100
AcDbEntity
  8
Visible (ANSI)
100
AcDbLine
 10
19.16379299528333
 20
7.349699878016276
 30
0.0
 11
19.1998567142971
 21
7.301684059357952
 31
0.0
  0
LINE
  5
3DF
330
23
100
AcDbEntity
  8
Visible (ANSI)
100
AcDbLine
 10
19.1998567142971
 20
7.301684059357952
 30
0.0
 11
19.1998567142971
 21
7.376281340506499
 31
0.0
  0
LINE
  5
3E0
330
23
100
AcDbEntity
  8
Visible (ANSI)
100
AcDbLine
 10
19.18947751330606
 20
7.380951072459299
 30
0.0
 11
19.1998567142971
 21
7.376281340506499
 31
0.0
  0
LINE
  5
3E1
330
23
100
AcDbEntity
  8
Visible (ANSI)
100
AcDbLine
 10
19.1762163916889
 20
7.33315916715108
 30
0.0
 11
19.1762163916889
 21
7.373314500407867
 31
0.0
  0
LINE
  5
3E2
330
23
100
AcDbEntity
  8
Visible (ANSI)
100
AcDbLine
 10
19.1998567142971
 20
7.376281340506499
 30
0.0
 11
19.21832655855687
 21
7.389894896895501
 31
0.0
  0
LINE
  5
3E3
330
23
100
AcDbEntity
  8
Visible (ANSI)
100
AcDbLine
 10
19.21085002419687
 20
7.393258682935217
 30
0.0
 11
19.21832655855687
 21
7.389894896895501
 31
0.0
  0
LINE
  5
3E4
330
23
100
AcDbEntity
  8
Visible (ANSI)
100
AcDbLine
 10
19.21832655855687
 20
7.389894896895501
 30
0.0
 11
19.21832655855687
 21
7.296776420517654
 31
0.0
  0
LINE
  5
3E5
330
23
100
AcDbEntity
  8
Visible (ANSI)
100
AcDbLine
 10
19.21832655855687
 20
7.296776420517654
 30
0.0
 11
19.18686240056086
 21
7.273585153548268
 31
0.0
  0
LINE
  5
3E6
330
23
100
AcDbEntity
  8
Visible (ANSI)
100
AcDbLine
 10
19.16335221725052
 20
7.284162678187703
 30
0.0
 11
19.18686240056086
 21
7.273585153548268
 31
0.0
  0
LINE
  5
3E7
330
23
100
AcDbEntity
  8
Visible (ANSI)
100
AcDbLine
 10
19.18686240056086
 20
7.273585153548268
 30
0.0
 11
19.16335221725052
 21
7.304886991775812
 31
0.0
  0
LINE
  5
3E8
330
23
100
AcDbEntity
  8
Visible (ANSI)
100
AcDbLine
 10
19.16335221725052
 20
7.304886991775812
 30
0.0
 11
19.16335221725052
 21
7.256996610849364
 31
0.0
  0
LINE
  5
3E9
330
23
100
AcDbEntity
  8
Visible (ANSI)
100
AcDbLine
 10
19.16335221725052
 20
7.256996610849364
 30
0.0
 11
19.14488237299076
 21
7.243383054460363
 31
0.0
  0
LINE
  5
3EA
330
23
100
AcDbEntity
  8
Visible (ANSI)
100
AcDbLine
 10
19.12243829688124
 20
7.253480924175967
 30
0.0
 11
19.14488237299076
 21
7.243383054460363
 31
0.0
  0
LINE
  5
3EB
330
23
100
AcDbEntity
  8
Visible (ANSI)
100
AcDbLine
 10
19.14488237299076
 20
7.243383054460363
 30
0.0
 11
19.14488237299076
 21
7.335761437642322
 31
0.0
  0
LINE
  5
3EC
330
23
100
AcDbEntity
  8
Visible (ANSI)
100
AcDbLine
 10
19.12124205038255
 20
7.295047084255047
 30
0.0
 11
19.12124205038255
 21
7.341656882712638
 31
0.0
  0
ELLIPSE
  5
3ED
330
23
100
AcDbEntity
  8
Visible (ANSI)
100
AcDbEllipse
 10
19.09097202419781
 20
7.249978066652181
 30
0.0
 11
-0.0231818536763854
 21
-0.0515252526449571
 31
0.0
210
0.0
220
0.0
230
0.9999999999999998
 40
0.5033322690287127
 41
0.0000000000000391
 42
6.283185307179585
  0
ELLIPSE
  5
3EE
330
23
100
AcDbEntity
  8
Visible (ANSI)
100
AcDbEllipse
 10
19.0673317015896
 20
7.260614142584544
 30
0.0
 11
-0.0231818536763853
 21
-0.0515252526449571
 31
0.0
210
0.0
220
0.0
230
1.0
 40
0.5033322690287121
 41
3.141592653589831
 42
6.283185307179624
  0
LINE
  5
3EF
330
23
100
AcDbEntity
  8
Visible (ANSI)
100
AcDbLine
 10
19.09051355526598
 20
7.312139395229501
 30
0.0
 11
19.11415387787419
 21
7.301503319297138
 31
0.0
  0
LINE
  5
3F0
330
23
100
AcDbEntity
  8
Visible (ANSI)
100
AcDbLine
 10
19.04414984791321
 20
7.209088889939587
 30
0.0
 11
19.06779017052142
 21
7.198452814007225
 31
0.0
  0
ELLIPSE
  5
3F1
330
23
100
AcDbEntity
  8
Visible (ANSI)
100
AcDbEllipse
 10
19.57534767904082
 20
7.318489094103069
 30
0.0
 11
0.1541973591438508
 21
-0.2677680402777114
 31
0.0
210
0.0
220
0.0
230
0.9999999999999998
 40
0.5780931159158105
 41
1.92077744381539
 42
2.306347229024915
  0
ELLIPSE
  5
3F2
330
23
100
AcDbEntity
  8
Visible (ANSI)
100
AcDbEllipse
 10
19.39857098374421
 20
7.21669016565497
 30
0.0
 11
0.1541973591438508
 21
-0.2677680402777114
 31
0.0
210
0.0
220
0.0
230
0.9999999999999998
 40
0.5780931159158105
 41
1.92077744381539
 42
2.306347229024915
  0
LINE
  5
3F3
330
23
100
AcDbEntity
  8
Visible (ANSI)
100
AcDbLine
 10
19.40987959936865
 20
7.427150829482156
 30
0.0
 11
19.40987959936865
 21
7.462455550021688
 31
0.0
  0
LINE
  5
3F4
330
23
100
AcDbEntity
  8
Visible (ANSI)
100
AcDbLine
 10
19.40987959936865
 20
7.462455550021688
 30
0.0
 11
19.58665629466526
 21
7.564254478469788
 31
0.0
  0
LINE
  5
3F5
330
23
100
AcDbEntity
  8
Visible (ANSI)
100
AcDbLine
 10
19.26056912548763
 20
7.341168646018085
 30
0.0
 11
19.40987959936865
 21
7.427150829482156
 31
0.0
  0
ELLIPSE
  5
3F6
330
23
100
AcDbEntity
  8
Visible (ANSI)
100
AcDbEllipse
 10
19.39857098374421
 20
7.21669016565497
 30
0.0
 11
0.132680867895476
 21
-0.2304040495633503
 31
0.0
210
0.0
220
0.0
230
1.0
 40
0.5780931159158107
 41
1.980659662468847
 42
2.297940608227127
  0
ELLIPSE
  5
3F7
330
23
100
AcDbEntity
  8
Visible (ANSI)
100
AcDbEllipse
 10
19.2217942884476
 20
7.114891237206871
 30
0.0
 11
-0.1541973591438676
 21
0.2677680402777036
 31
0.0
210
0.0
220
0.0
230
1.0
 40
0.5780931159158106
 41
5.062370097405059
 42
5.447939882614497
  0
LINE
  5
3F8
330
23
100
AcDbEntity
  8
Visible (ANSI)
100
AcDbLine
 10
19.23095032229832
 20
7.359417032171863
 30
0.0
 11
19.23310290407204
 21
7.360656621573589
 31
0.0
  0
LINE
  5
3F9
330
23
100
AcDbEntity
  8
Visible (ANSI)
100
AcDbLine
 10
19.26350849566312
 20
6.782348457727501
 30
0.0
 11
19.3606872549048
 21
6.838309983324075
 31
0.0
  0
LINE
  5
3FA
330
23
100
AcDbEntity
  8
Visible (ANSI)
100
AcDbLine
 10
19.46564317458009
 20
7.176982066525028
 30
0.0
 11
19.92046668044396
 21
7.159137965407489
 31
0.0
  0
ELLIPSE
  5
3FB
330
23
100
AcDbEntity
  8
Visible (ANSI)
100
AcDbEllipse
 10
19.47159701717001
 20
7.158722182153881
 30
0.0
 11
-0.0099806442316871
 21
0.0173316687229041
 31
0.0
210
0.0
220
0.0
230
1.0
 40
0.5780931159158105
 41
5.934268624956538
 42
8.393173518348651
  0
LINE
  5
3FC
330
23
100
AcDbEntity
  8
Visible Narrow (ANSI)
100
AcDbLine
 10
19.46812368966708
 20
7.144872210268911
 30
0.0
 11
19.52016858112235
 21
7.174842869989952
 31
0.0
  0
ELLIPSE
  5
3FD
330
23
100
AcDbEntity
  8
Visible (ANSI)
100
AcDbEllipse
 10
19.61737848270958
 20
7.136926931723019
 30
0.0
 11
0.0790844844735329
 21
-0.137332426063748
 31
0.0
210
0.0
220
0.0
230
1.0
 40
0.5780931159158105
 41
0.6179982933283572
 42
1.462957219744664
  0
ELLIPSE
  5
3FE
330
23
100
AcDbEntity
  8
Visible (ANSI)
100
AcDbEllipse
 10
19.44060178741297
 20
7.035128003274921
 30
0.0
 11
-0.0790844844735414
 21
0.1373324260637436
 31
0.0
210
0.0
220
0.0
230
0.9999999999999998
 40
0.5780931159158105
 41
3.759590946917835
 42
5.251580864758543
  0
LINE
  5
3FF
330
23
100
AcDbEntity
  8
Visible Narrow (ANSI)
100
AcDbLine
 10
19.55105828680147
 20
6.949685942811546
 30
0.0
 11
19.72783498209808
 21
7.051484871259645
 31
0.0
  0
ELLIPSE
  5
400
330
23
100
AcDbEntity
  8
Visible (ANSI)
100
AcDbEllipse
 10
19.74177484692508
 20
7.040701886283715
 30
0.0
 11
0.0099806442316891
 21
-0.0173316687229028
 31
0.0
210
0.0
220
0.0
230
1.0
 40
0.5780931159158105
 41
3.759590946918015
 42
6.092877679483255
  0
ELLIPSE
  5
401
330
23
100
AcDbEntity
  8
Visible (ANSI)
100
AcDbEllipse
 10
19.56499815162847
 20
6.938902957835615
 30
0.0
 11
0.0099806442316881
 21
-0.0173316687229035
 31
0.0
210
0.0
220
0.0
230
0.9999999999999998
 40
0.5780931159158106
 41
3.759590946918232
 42
6.092877679483553
  0
LINE
  5
402
330
23
100
AcDbEntity
  8
Visible Narrow (ANSI)
100
AcDbLine
 10
19.57290334215145
 20
6.920792783507054
 30
0.0
 11
19.74968003744806
 21
7.022591711955151
 31
0.0
  0
LINE
  5
403
330
23
100
AcDbEntity
  8
Visible (ANSI)
100
AcDbLine
 10
19.74968003744806
 20
7.022591711955151
 30
0.0
 11
19.96721934721636
 21
7.06687546513899
 31
0.0
  0
LINE
  5
404
330
23
100
AcDbEntity
  8
Visible (ANSI)
100
AcDbLine
 10
19.97961934183156
 20
7.00358660575893
 30
0.0
 11
19.57290334215145
 21
6.920792783507054
 31
0.0
  0
LINE
  5
405
330
23
100
AcDbEntity
  8
Visible Narrow (ANSI)
100
AcDbLine
 10
19.97961934183156
 20
7.00358660575893
 30
0.0
 11
19.98340986995208
 21
7.005769425730044
 31
0.0
  0
ELLIPSE
  5
406
330
23
100
AcDbEntity
  8
Visible (ANSI)
100
AcDbEllipse
 10
19.97171415130858
 20
7.021696780087493
 30
0.0
 11
0.0099806442316879
 21
-0.0173316687229031
 31
0.0
210
0.0
220
0.0
230
0.9999999999999998
 40
0.5780931159158108
 41
6.092877679483554
 42
7.582906636390125
  0
LINE
  5
407
330
23
100
AcDbEntity
  8
Visible (ANSI)
100
AcDbLine
 10
19.93874646250648
 20
7.141796277861461
 30
0.0
 11
19.98404009078118
 21
7.022614976912612
 31
0.0
  0
ELLIPSE
  5
408
330
23
100
AcDbEntity
  8
Visible (ANSI)
100
AcDbEllipse
 10
19.92642052303389
 20
7.140878081036342
 30
0.0
 11
-0.0099806442316879
 21
0.0173316687229032
 31
0.0
210
0.0
220
0.0
230
1.0
 40
0.5780931159158106
 41
4.441313982800321
 42
5.934268624956297
  0
ELLIPSE
  5
409
330
23
100
AcDbEntity
  8
Visible (ANSI)
100
AcDbEllipse
 10
19.44060178741297
 20
7.035128003274921
 30
0.0
 11
0.0311895132240221
 21
-0.0541614647590753
 31
0.0
210
0.0
220
0.0
230
1.0
 40
0.5780931159158106
 41
0.0000000000001896
 42
6.283185307179586
  0
LINE
  5
40A
330
23
100
AcDbEntity
  8
Visible (ANSI)
100
AcDbLine
 10
20.5504074397557
 20
7.25654208753033
 30
0.0
 11
20.48480227029228
 21
7.429169226124739
 31
0.0
  0
LINE
  5
40B
330
23
100
AcDbEntity
  8
Visible Narrow (ANSI)
100
AcDbLine
 10
20.0251828625211
 20
7.164492012159683
 30
0.0
 11
20.48480227029228
 21
7.429169226124739
 31
0.0
  0
LINE
  5
40C
330
23
100
AcDbEntity
  8
Visible (ANSI)
100
AcDbLine
 10
20.09078803198452
 20
6.991864873565273
 30
0.0
 11
20.0251828625211
 21
7.164492012159683
 31
0.0
  0
LINE
  5
40D
330
23
100
AcDbEntity
  8
Visible Narrow (ANSI)
100
AcDbLine
 10
20.09078803198452
 20
6.991864873565273
 30
0.0
 11
20.5504074397557
 21
7.25654208753033
 31
0.0
  0
ELLIPSE
  5
40E
330
23
100
AcDbEntity
  8
Visible (ANSI)
100
AcDbEllipse
 10
20.44782445187451
 20
7.426414635649382
 30
0.0
 11
-0.0299419326950642
 21
0.0519950061687103
 31
0.0
210
0.0
220
0.0
230
0.9999999999999998
 40
0.5780931159158107
 41
4.441313982800346
 42
5.932697828629517
  0
LINE
  5
40F
330
23
100
AcDbEntity
  8
Visible Narrow (ANSI)
100
AcDbLine
 10
19.97040398780027
 20
7.21651463560217
 30
0.0
 11
20.43002339557146
 21
7.481191849567227
 31
0.0
  0
ELLIPSE
  5
410
330
23
100
AcDbEntity
  8
Visible (ANSI)
100
AcDbEllipse
 10
19.98820504410332
 20
7.161737421684326
 30
0.0
 11
-0.0299419326950642
 21
0.0519950061687103
 31
0.0
210
0.0
220
0.0
230
0.9999999999999998
 40
0.5780931159158107
 41
4.441313982800346
 42
5.932697828629517
  0
LINE
  5
411
330
23
100
AcDbEntity
  8
Visible (ANSI)
100
AcDbLine
 10
20.43002339557146
 20
7.481191849567227
 30
0.0
 11
19.70505746510564
 21
7.511233558194137
 31
0.0
  0
LINE
  5
412
330
23
100
AcDbEntity
  8
Visible Narrow (ANSI)
100
AcDbLine
 10
19.26350849566312
 20
7.256962417582577
 30
0.0
 11
19.70505746510564
 21
7.511233558194137
 31
0.0
  0
LINE
  5
413
330
23
100
AcDbEntity
  8
Visible (ANSI)
100
AcDbLine
 10
19.97040398780027
 20
7.21651463560217
 30
0.0
 11
19.26350849566312
 21
7.24580752718787
 31
0.0
  0
ELLIPSE
  5
414
330
23
100
AcDbEntity
  8
Visible (ANSI)
100
AcDbEllipse
 10
19.72285852140869
 20
7.45645634427629
 30
0.0
 11
-0.0299419326950649
 21
0.0519950061687115
 31
0.0
210
0.0
220
0.0
230
0.9999999999999998
 40
0.5780931159158106
 41
5.932697828629505
 42
6.283185307179606
  0
LINE
  5
415
330
23
100
AcDbEntity
  8
Visible (ANSI)
100
AcDbLine
 10
19.26350849566312
 20
7.091015835860504
 30
0.0
 11
19.35452209751465
 21
6.851531389904434
 31
0.0
  0
ELLIPSE
  5
416
330
23
100
AcDbEntity
  8
Visible (ANSI)
100
AcDbEllipse
 10
19.39149991593243
 20
6.854285980379791
 30
0.0
 11
0.0299419326950643
 21
-0.0519950061687106
 31
0.0
210
0.0
220
0.0
230
1.0
 40
0.5780931159158108
 41
4.44131398280032
 42
6.092877679483481
  0
LINE
  5
417
330
23
100
AcDbEntity
  8
Visible (ANSI)
100
AcDbLine
 10
19.41521548750136
 20
6.799955457394101
 30
0.0
 11
20.07752578513567
 21
6.934779760104227
 31
0.0
  0
ELLIPSE
  5
418
330
23
100
AcDbEntity
  8
Visible (ANSI)
100
AcDbEllipse
 10
20.51342962133793
 20
7.253787497054973
 30
0.0
 11
0.0299419326950644
 21
-0.0519950061687104
 31
0.0
210
0.0
220
0.0
230
1.0
 40
0.5780931159158107
 41
0.0
 42
1.2997213292105
  0
ELLIPSE
  5
419
330
23
100
AcDbEntity
  8
Visible (ANSI)
100
AcDbEllipse
 10
20.05381021356674
 20
6.989110283089916
 30
0.0
 11
0.0299419326950641
 21
-0.0519950061687102
 31
0.0
210
0.0
220
0.0
230
1.0
 40
0.5780931159158106
 41
6.092877679483481
 42
7.582906636390089
  0
LINE
  5
41A
330
23
100
AcDbEntity
  8
Visible (ANSI)
100
AcDbLine
 10
19.26350849566312
 20
7.261171675564002
 30
0.0
 11
19.69291658871363
 21
7.508451350445001
 31
0.0
  0
LINE
  5
41B
330
23
100
AcDbEntity
  8
Visible (ANSI)
100
AcDbLine
 10
20.0837521462618
 20
6.937115276921206
 30
0.0
 11
20.54337155403299
 21
7.201792490886262
 31
0.0
  0
LINE
  5
41C
330
23
100
AcDbEntity
  8
Visible (ANSI)
100
AcDbLine
 10
6.151190231432295
 20
14.71524507807568
 30
0.0
 11
6.151190231432295
 21
14.15524507807568
 31
0.0
  0
LINE
  5
41D
330
23
100
AcDbEntity
  8
Visible (ANSI)
100
AcDbLine
 10
6.101190231432295
 20
14.71524507807568
 30
0.0
 11
6.151190231432295
 21
14.71524507807568
 31
0.0
  0
LINE
  5
41E
330
23
100
AcDbEntity
  8
Visible (ANSI)
100
AcDbLine
 10
6.101190231432295
 20
14.15524507807568
 30
0.0
 11
6.151190231432295
 21
14.15524507807568
 31
0.0
  0
LINE
  5
41F
330
23
100
AcDbEntity
  8
Visible (ANSI)
100
AcDbLine
 10
3.656190231432295
 20
14.24774507807568
 30
0.0
 11
3.656190231432295
 21
14.62274507807568
 31
0.0
  0
LINE
  5
420
330
23
100
AcDbEntity
  8
Visible (ANSI)
100
AcDbLine
 10
4.456190231432295
 20
14.24774507807568
 30
0.0
 11
3.656190231432295
 21
14.24774507807568
 31
0.0
  0
LINE
  5
421
330
23
100
AcDbEntity
  8
Visible (ANSI)
100
AcDbLine
 10
4.456190231432295
 20
14.62274507807568
 30
0.0
 11
3.656190231432295
 21
14.62274507807568
 31
0.0
  0
LINE
  5
422
330
23
100
AcDbEntity
  8
Visible (ANSI)
100
AcDbLine
 10
4.456190231432295
 20
14.06024507807568
 30
0.0
 11
4.456190231432295
 21
14.81024507807568
 31
0.0
  0
LINE
  5
423
330
23
100
AcDbEntity
  8
Visible (ANSI)
100
AcDbLine
 10
5.956190231432294
 20
14.06024507807568
 30
0.0
 11
4.456190231432295
 21
14.06024507807568
 31
0.0
  0
LINE
  5
424
330
23
100
AcDbEntity
  8
Visible (ANSI)
100
AcDbLine
 10
5.956190231432294
 20
14.81024507807568
 30
0.0
 11
4.456190231432295
 21
14.81024507807568
 31
0.0
  0
LINE
  5
425
330
23
100
AcDbEntity
  8
Visible (ANSI)
100
AcDbLine
 10
8.076190231432295
 20
13.68524507807499
 30
0.0
 11
8.061190231432295
 21
13.685245078075
 31
0.0
  0
LINE
  5
426
330
23
100
AcDbEntity
  8
Visible (ANSI)
100
AcDbLine
 10
8.061190231432295
 20
15.185245078075
 30
0.0
 11
8.076190231432295
 21
15.18524507807499
 31
0.0
  0
LINE
  5
427
330
23
100
AcDbEntity
  8
Visible (ANSI)
100
AcDbLine
 10
8.076190231432295
 20
13.68524507807499
 30
0.0
 11
8.076190231432295
 21
15.18524507807499
 31
0.0
  0
LINE
  5
428
330
23
100
AcDbEntity
  8
Visible (ANSI)
100
AcDbLine
 10
7.856190231432296
 20
13.685245078075
 30
0.0
 11
8.061190231432295
 21
13.685245078075
 31
0.0
  0
LINE
  5
429
330
23
100
AcDbEntity
  8
Visible (ANSI)
100
AcDbLine
 10
8.061190231432295
 20
15.185245078075
 30
0.0
 11
7.856190231432296
 21
15.185245078075
 31
0.0
  0
LINE
  5
42A
330
23
100
AcDbEntity
  8
Visible (ANSI)
100
AcDbLine
 10
4.906190231432296
 20
13.90524507807585
 30
0.0
 11
4.906190231432296
 21
13.72524507807585
 31
0.0
  0
LINE
  5
42B
330
23
100
AcDbEntity
  8
Visible (ANSI)
100
AcDbLine
 10
4.906190231432296
 20
15.14524507807585
 30
0.0
 11
4.906190231432296
 21
14.96524507807585
 31
0.0
  0
LINE
  5
42C
330
23
100
AcDbEntity
  8
Visible (ANSI)
100
AcDbLine
 10
7.856190231432295
 20
15.18524507807564
 30
0.0
 11
7.856190231432295
 21
14.82524507807564
 31
0.0
  0
LINE
  5
42D
330
23
100
AcDbEntity
  8
Visible (ANSI)
100
AcDbLine
 10
7.802023027130996
 20
15.18524507807572
 30
0.0
 11
7.856190231432295
 21
15.18524507807564
 31
0.0
  0
LINE
  5
42E
330
23
100
AcDbEntity
  8
Visible (ANSI)
100
AcDbLine
 10
7.856190231432296
 20
13.68524507807564
 30
0.0
 11
7.802023027130996
 21
13.68524507807572
 31
0.0
  0
LINE
  5
42F
330
23
100
AcDbEntity
  8
Visible (ANSI)
100
AcDbLine
 10
7.856190231432295
 20
14.04524507807564
 30
0.0
 11
7.856190231432295
 21
13.68524507807564
 31
0.0
  0
LINE
  5
430
330
23
100
AcDbEntity
  8
Visible (ANSI)
100
AcDbLine
 10
4.906190231432296
 20
13.90524507807549
 30
0.0
 11
4.906190231432296
 21
14.06024507807568
 31
0.0
  0
LINE
  5
431
330
23
100
AcDbEntity
  8
Visible (ANSI)
100
AcDbLine
 10
4.906190231432296
 20
14.81024507807568
 30
0.0
 11
4.906190231432296
 21
14.96524507807549
 31
0.0
  0
LINE
  5
432
330
23
100
AcDbEntity
  8
Visible (ANSI)
100
AcDbLine
 10
6.506190231432295
 20
14.96524507807574
 30
0.0
 11
6.506190231432293
 21
14.88524507807574
 31
0.0
  0
LINE
  5
433
330
23
100
AcDbEntity
  8
Visible (ANSI)
100
AcDbLine
 10
6.506190231432293
 20
13.98524507807574
 30
0.0
 11
6.506190231432295
 21
13.90524507807574
 31
0.0
  0
LINE
  5
434
330
23
100
AcDbEntity
  8
Visible (ANSI)
100
AcDbLine
 10
5.586190231432295
 20
15.1852450780758
 30
0.0
 11
5.786190231432295
 21
15.1852450780758
 31
0.0
  0
LINE
  5
435
330
23
100
AcDbEntity
  8
Visible (ANSI)
100
AcDbLine
 10
6.586190231432294
 20
15.1852450780758
 30
0.0
 11
6.786190231432295
 21
15.1852450780758
 31
0.0
  0
LINE
  5
436
330
23
100
AcDbEntity
  8
Visible (ANSI)
100
AcDbLine
 10
5.586190231432295
 20
15.14524507807579
 30
0.0
 11
5.586190231432295
 21
15.1852450780758
 31
0.0
  0
LINE
  5
437
330
23
100
AcDbEntity
  8
Visible (ANSI)
100
AcDbLine
 10
5.786190231432295
 20
15.14524507807579
 30
0.0
 11
5.786190231432295
 21
15.1852450780758
 31
0.0
  0
LINE
  5
438
330
23
100
AcDbEntity
  8
Visible (ANSI)
100
AcDbLine
 10
6.586190231432294
 20
15.14524507807579
 30
0.0
 11
6.586190231432294
 21
15.1852450780758
 31
0.0
  0
LINE
  5
439
330
23
100
AcDbEntity
  8
Visible (ANSI)
100
AcDbLine
 10
6.786190231432295
 20
15.14524507807579
 30
0.0
 11
6.786190231432295
 21
15.1852450780758
 31
0.0
  0
LINE
  5
43A
330
23
100
AcDbEntity
  8
Visible (ANSI)
100
AcDbLine
 10
7.802023027130996
 20
15.18524507807572
 30
0.0
 11
7.802023027130996
 21
15.14524507807572
 31
0.0
  0
LINE
  5
43B
330
23
100
AcDbEntity
  8
Visible (ANSI)
100
AcDbLine
 10
5.336190231432294
 20
15.18524507807572
 30
0.0
 11
5.586190231432295
 21
15.18524507807572
 31
0.0
  0
LINE
  5
43C
330
23
100
AcDbEntity
  8
Visible (ANSI)
100
AcDbLine
 10
5.786190231432295
 20
15.18524507807572
 30
0.0
 11
6.586190231432294
 21
15.18524507807572
 31
0.0
  0
LINE
  5
43D
330
23
100
AcDbEntity
  8
Visible (ANSI)
100
AcDbLine
 10
6.786190231432295
 20
15.18524507807572
 30
0.0
 11
7.802023027130996
 21
15.18524507807572
 31
0.0
  0
LINE
  5
43E
330
23
100
AcDbEntity
  8
Visible (ANSI)
100
AcDbLine
 10
5.336190231432294
 20
15.18524507807572
 30
0.0
 11
5.336190231432294
 21
15.14524507807572
 31
0.0
  0
LINE
  5
43F
330
23
100
AcDbEntity
  8
Visible (ANSI)
100
AcDbLine
 10
7.156190231432294
 20
15.14524507807585
 30
0.0
 11
7.802023027130995
 21
15.14524507807572
 31
0.0
  0
LINE
  5
440
330
23
100
AcDbEntity
  8
Visible (ANSI)
100
AcDbLine
 10
7.156190231432295
 20
15.14524507807585
 30
0.0
 11
4.906190231432296
 21
15.14524507807585
 31
0.0
  0
LINE
  5
441
330
23
100
AcDbEntity
  8
Visible (ANSI)
100
AcDbLine
 10
7.776170069814157
 20
14.96524507807574
 30
0.0
 11
7.156190231432295
 21
14.96524507807585
 31
0.0
  0
LINE
  5
442
330
23
100
AcDbEntity
  8
Visible (ANSI)
100
AcDbLine
 10
7.776170069814157
 20
14.96524507807574
 30
0.0
 11
7.776170069814157
 21
14.82524507807574
 31
0.0
  0
LINE
  5
443
330
23
100
AcDbEntity
  8
Visible (ANSI)
100
AcDbLine
 10
7.856190231432295
 20
14.82524507807564
 30
0.0
 11
7.776170069814157
 21
14.82524507807574
 31
0.0
  0
LINE
  5
444
330
23
100
AcDbEntity
  8
Visible (ANSI)
100
AcDbLine
 10
4.906190231432296
 20
14.96524507807585
 30
0.0
 11
7.156190231432295
 21
14.96524507807585
 31
0.0
  0
LINE
  5
445
330
23
100
AcDbEntity
  8
Visible (ANSI)
100
AcDbLine
 10
7.776170069814157
 20
14.82524507807574
 30
0.0
 11
7.706190231432293
 21
14.82524507807574
 31
0.0
  0
LINE
  5
446
330
23
100
AcDbEntity
  8
Visible (ANSI)
100
AcDbLine
 10
7.856190231432295
 20
14.82524507807563
 30
0.0
 11
7.856190231432295
 21
14.04524507807563
 31
0.0
  0
LINE
  5
447
330
23
100
AcDbEntity
  8
Visible (ANSI)
100
AcDbLine
 10
7.776170069814157
 20
14.04524507807574
 30
0.0
 11
7.706190231432293
 21
14.04524507807574
 31
0.0
  0
LINE
  5
448
330
23
100
AcDbEntity
  8
Visible (ANSI)
100
AcDbLine
 10
7.776170069814156
 20
14.04524507807574
 30
0.0
 11
7.856190231432295
 21
14.04524507807564
 31
0.0
  0
LINE
  5
449
330
23
100
AcDbEntity
  8
Visible (ANSI)
100
AcDbLine
 10
7.776170069814157
 20
14.04524507807574
 30
0.0
 11
7.776170069814157
 21
13.90524507807574
 31
0.0
  0
LINE
  5
44A
330
23
100
AcDbEntity
  8
Visible (ANSI)
100
AcDbLine
 10
7.156190231432295
 20
13.90524507807585
 30
0.0
 11
4.906190231432296
 21
13.90524507807585
 31
0.0
  0
LINE
  5
44B
330
23
100
AcDbEntity
  8
Visible (ANSI)
100
AcDbLine
 10
7.156190231432295
 20
13.90524507807585
 30
0.0
 11
7.776170069814157
 21
13.90524507807574
 31
0.0
  0
LINE
  5
44C
330
23
100
AcDbEntity
  8
Visible (ANSI)
100
AcDbLine
 10
6.786190231432295
 20
13.6852450780758
 30
0.0
 11
6.586190231432294
 21
13.6852450780758
 31
0.0
  0
LINE
  5
44D
330
23
100
AcDbEntity
  8
Visible (ANSI)
100
AcDbLine
 10
5.786190231432295
 20
13.6852450780758
 30
0.0
 11
5.586190231432295
 21
13.6852450780758
 31
0.0
  0
LINE
  5
44E
330
23
100
AcDbEntity
  8
Visible (ANSI)
100
AcDbLine
 10
6.786190231432295
 20
13.72524507807579
 30
0.0
 11
6.786190231432295
 21
13.6852450780758
 31
0.0
  0
LINE
  5
44F
330
23
100
AcDbEntity
  8
Visible (ANSI)
100
AcDbLine
 10
6.586190231432294
 20
13.72524507807579
 30
0.0
 11
6.586190231432294
 21
13.6852450780758
 31
0.0
  0
LINE
  5
450
330
23
100
AcDbEntity
  8
Visible (ANSI)
100
AcDbLine
 10
5.786190231432295
 20
13.72524507807579
 30
0.0
 11
5.786190231432295
 21
13.6852450780758
 31
0.0
  0
LINE
  5
451
330
23
100
AcDbEntity
  8
Visible (ANSI)
100
AcDbLine
 10
5.586190231432295
 20
13.72524507807579
 30
0.0
 11
5.586190231432295
 21
13.6852450780758
 31
0.0
  0
LINE
  5
452
330
23
100
AcDbEntity
  8
Visible (ANSI)
100
AcDbLine
 10
7.802023027130996
 20
13.72524507807572
 30
0.0
 11
7.156190231432295
 21
13.72524507807585
 31
0.0
  0
LINE
  5
453
330
23
100
AcDbEntity
  8
Visible (ANSI)
100
AcDbLine
 10
4.906190231432296
 20
13.72524507807585
 30
0.0
 11
7.156190231432295
 21
13.72524507807585
 31
0.0
  0
LINE
  5
454
330
23
100
AcDbEntity
  8
Visible (ANSI)
100
AcDbLine
 10
5.336190231432294
 20
13.68524507807572
 30
0.0
 11
5.336190231432294
 21
13.72524507807572
 31
0.0
  0
LINE
  5
455
330
23
100
AcDbEntity
  8
Visible (ANSI)
100
AcDbLine
 10
7.802023027130996
 20
13.72524507807572
 30
0.0
 11
7.802023027130996
 21
13.68524507807572
 31
0.0
  0
LINE
  5
456
330
23
100
AcDbEntity
  8
Visible (ANSI)
100
AcDbLine
 10
7.802023027130996
 20
13.68524507807572
 30
0.0
 11
6.786190231432295
 21
13.68524507807572
 31
0.0
  0
LINE
  5
457
330
23
100
AcDbEntity
  8
Visible (ANSI)
100
AcDbLine
 10
6.586190231432294
 20
13.68524507807572
 30
0.0
 11
5.786190231432295
 21
13.68524507807572
 31
0.0
  0
LINE
  5
458
330
23
100
AcDbEntity
  8
Visible (ANSI)
100
AcDbLine
 10
5.586190231432295
 20
13.68524507807572
 30
0.0
 11
5.336190231432294
 21
13.68524507807572
 31
0.0
  0
LINE
  5
459
330
23
100
AcDbEntity
  8
Visible (ANSI)
100
AcDbLine
 10
6.101190231432295
 20
14.04524507807579
 30
0.0
 11
5.956190231432294
 21
14.04524507807579
 31
0.0
  0
LINE
  5
45A
330
23
100
AcDbEntity
  8
Visible (ANSI)
100
AcDbLine
 10
5.956190231432294
 20
14.82524507807579
 30
0.0
 11
6.101190231432295
 21
14.82524507807579
 31
0.0
  0
LINE
  5
45B
330
23
100
AcDbEntity
  8
Visible (ANSI)
100
AcDbLine
 10
6.101190231432295
 20
14.82524507807579
 30
0.0
 11
6.101190231432295
 21
14.04524507807579
 31
0.0
  0
LINE
  5
45C
330
23
100
AcDbEntity
  8
Visible (ANSI)
100
AcDbLine
 10
5.956190231432294
 20
14.04524507807579
 30
0.0
 11
5.956190231432294
 21
14.82524507807579
 31
0.0
  0
LINE
  5
45D
330
23
100
AcDbEntity
  8
Visible (ANSI)
100
AcDbLine
 10
6.101190231432295
 20
14.9652450780757
 30
0.0
 11
6.101190231432295
 21
14.8252450780757
 31
0.0
  0
LINE
  5
45E
330
23
100
AcDbEntity
  8
Visible (ANSI)
100
AcDbLine
 10
5.956190231432294
 20
14.8252450780757
 30
0.0
 11
5.956190231432294
 21
14.9652450780757
 31
0.0
  0
LINE
  5
45F
330
23
100
AcDbEntity
  8
Visible (ANSI)
100
AcDbLine
 10
6.101190231432295
 20
14.0452450780757
 30
0.0
 11
6.101190231432295
 21
13.9052450780757
 31
0.0
  0
LINE
  5
460
330
23
100
AcDbEntity
  8
Visible (ANSI)
100
AcDbLine
 10
5.956190231432294
 20
13.9052450780757
 30
0.0
 11
5.956190231432294
 21
14.0452450780757
 31
0.0
  0
LINE
  5
461
330
23
100
AcDbEntity
  8
Visible (ANSI)
100
AcDbLine
 10
6.506190231432293
 20
14.88524507807574
 30
0.0
 11
7.706190231432293
 21
14.88524507807574
 31
0.0
  0
LINE
  5
462
330
23
100
AcDbEntity
  8
Visible (ANSI)
100
AcDbLine
 10
7.706190231432293
 20
13.98524507807574
 30
0.0
 11
6.506190231432293
 21
13.98524507807574
 31
0.0
  0
LINE
  5
463
330
23
100
AcDbEntity
  8
Visible (ANSI)
100
AcDbLine
 10
7.706190231432293
 20
14.82524507807563
 30
0.0
 11
7.706190231432293
 21
14.04524507807563
 31
0.0
  0
LINE
  5
464
330
23
100
AcDbEntity
  8
Visible (ANSI)
100
AcDbLine
 10
7.706190231432293
 20
14.88524507807574
 30
0.0
 11
7.706190231432293
 21
14.82524507807574
 31
0.0
  0
LINE
  5
465
330
23
100
AcDbEntity
  8
Visible (ANSI)
100
AcDbLine
 10
7.706190231432293
 20
14.04524507807574
 30
0.0
 11
7.706190231432293
 21
13.98524507807574
 31
0.0
  0
LINE
  5
466
330
23
100
AcDbEntity
  8
Visible (ANSI)
100
AcDbLine
 10
9.133140171571584
 20
14.76024507807485
 30
0.0
 11
9.040360451154638
 21
14.7602450780749
 31
0.0
  0
LINE
  5
467
330
23
100
AcDbEntity
  8
Visible (ANSI)
100
AcDbLine
 10
9.133140171571584
 20
14.11024507807485
 30
0.0
 11
9.040360451154638
 21
14.1102450780749
 31
0.0
  0
LINE
  5
468
330
23
100
AcDbEntity
  8
Visible (ANSI)
100
AcDbLine
 10
8.962891423592923
 20
14.76024507807491
 30
0.0
 11
9.040360451154638
 21
14.7602450780749
 31
0.0
  0
LINE
  5
469
330
23
100
AcDbEntity
  8
Visible (ANSI)
100
AcDbLine
 10
8.962891423592923
 20
14.11024507807491
 30
0.0
 11
9.040360451154638
 21
14.1102450780749
 31
0.0
  0
LINE
  5
46A
330
23
100
AcDbEntity
  8
Visible (ANSI)
100
AcDbLine
 10
8.962891423592921
 20
14.76024507807491
 30
0.0
 11
8.076190231432295
 21
14.76024507807478
 31
0.0
  0
LINE
  5
46B
330
23
100
AcDbEntity
  8
Visible (ANSI)
100
AcDbLine
 10
8.962891423592921
 20
14.11024507807491
 30
0.0
 11
8.076190231432295
 21
14.11024507807479
 31
0.0
  0
LINE
  5
46C
330
23
100
AcDbEntity
  8
Visible (ANSI)
100
AcDbLine
 10
9.133140171571584
 20
14.76024507807485
 30
0.0
 11
9.1408456392582
 21
14.76024507807484
 31
0.0
  0
LINE
  5
46D
330
23
100
AcDbEntity
  8
Visible (ANSI)
100
AcDbLine
 10
9.133140171571584
 20
14.11024507807485
 30
0.0
 11
9.1408456392582
 21
14.11024507807484
 31
0.0
  0
LINE
  5
46E
330
23
100
AcDbEntity
  8
Visible (ANSI)
100
AcDbLine
 10
9.1408456392582
 20
14.11024507807484
 30
0.0
 11
9.1408456392582
 21
14.76024507807484
 31
0.0
  0
LINE
  5
46F
330
23
100
AcDbEntity
  8
Hidden Narrow (ANSI)
 48
0.9675858616828918
100
AcDbLine
 10
3.656190231432295
 20
14.27789507807568
 30
0.0
 11
4.456190231432295
 21
14.27789507807568
 31
0.0
  0
LINE
  5
470
330
23
100
AcDbEntity
  8
Hidden Narrow (ANSI)
 48
0.9675858616828918
100
AcDbLine
 10
4.456190231432295
 20
14.59259507807568
 30
0.0
 11
3.656190231432295
 21
14.59259507807568
 31
0.0
  0
LINE
  5
471
330
23
100
AcDbEntity
  8
Hidden Narrow (ANSI)
 48
0.9675858616828918
100
AcDbLine
 10
3.656190231432295
 20
14.27789507807391
 30
0.0
 11
4.456190231432295
 21
14.27789507807391
 31
0.0
  0
LINE
  5
472
330
23
100
AcDbEntity
  8
Hidden Narrow (ANSI)
 48
0.9675858616828918
100
AcDbLine
 10
4.456190231432295
 20
14.59259507807391
 30
0.0
 11
3.656190231432295
 21
14.59259507807391
 31
0.0
  0
DIMENSION
  5
473
330
23
100
AcDbEntity
  8
Dimension (ANSI)
100
AcDbDimension
  2
*D16
 10
1.663659578961667
 20
4.253389148238603
 30
0.0
 11
1.663659578961667
 21
7.810889148238602
 31
0.0
 70
   160
  1
<>
 42
7.115000000000001
  3
Default (ANSI)
100
AcDbAlignedDimension
 13
4.90619023143244
 23
11.3683891482386
 33
0.0
 14
4.90619023143244
 24
4.253389148238602
 34
0.0
 50
90.0
100
AcDbRotatedDimension
1001
ACAD
1000
DSTYLE
1002
{
1070
   279
1070
     1
1070
   271
1070
     3
1070
   272
1070
     2
1070
    47
1040
0.0
1070
    48
1040
0.0
1002
}
  0
DIMENSION
  5
554
330
23
100
AcDbEntity
  8
Dimension (ANSI)
100
AcDbDimension
  2
*D17
 10
2.508376093246088
 20
4.837463603336506
 30
0.0
 11
2.508376093246088
 21
8.611146911574415
 31
0.0
 70
   160
  1
<>
 42
5.949999999999999
  3
Default (ANSI)
100
AcDbAlignedDimension
 13
3.656190231432441
 23
10.7874636033365
 33
0.0
 14
3.656190231432441
 24
4.837463603336506
 34
0.0
 50
90.0
100
AcDbRotatedDimension
1001
ACAD
1000
DSTYLE
1002
{
1070
   271
1070
     3
1070
   272
1070
     2
1070
    47
1040
0.0
1070
    48
1040
0.0
1002
}
  0
DIMENSION
  5
620
330
23
100
AcDbEntity
  8
Dimension (ANSI)
100
AcDbDimension
  2
*D18
 10
4.45619023143244
 20
12.70697182540395
 30
0.0
 11
5.544714968377525
 21
12.70697182540395
 31
0.0
 70
   160
  1
<>
 42
0.4500000000000002
  3
Default (ANSI)
100
AcDbAlignedDimension
 13
4.90619023143244
 23
11.3683891482386
 33
0.0
 14
4.45619023143244
 24
11.16246360727351
 34
0.0
 50
180.0
100
AcDbRotatedDimension
1001
ACAD
1000
DSTYLE
1002
{
1070
   271
1070
     3
1070
   272
1070
     2
1070
    47
1040
0.0
1070
    48
1040
0.0
1002
}
  0
DIMENSION
  5
6EC
330
23
100
AcDbEntity
  8
Dimension (ANSI)
100
AcDbDimension
  2
*D19
 10
7.85619023143244
 20
12.23453088052206
 30
0.0
 11
6.462665644424791
 21
12.23453088052206
 31
0.0
 70
   160
  1
<>
 42
2.949999999999999
  3
Default (ANSI)
100
AcDbAlignedDimension
 13
4.90619023143244
 23
11.3683891482386
 33
0.0
 14
7.85619023143244
 24
10.6683891482386
 34
0.0
 50
180.0
100
AcDbRotatedDimension
1001
ACAD
1000
DSTYLE
1002
{
1070
   271
1070
     3
1070
   272
1070
     2
1070
    47
1040
0.0
1070
    48
1040
0.0
1002
}
  0
DIMENSION
  5
7B8
330
23
100
AcDbEntity
  8
Dimension (ANSI)
100
AcDbDimension
  2
*D20
 10
7.85619023143244
 20
11.91370397906337
 30
0.0
 11
8.789224897678156
 21
11.91370397906337
 31
0.0
 70
   160
  1
<>
 42
0.205000000000001
  3
Default (ANSI)
100
AcDbAlignedDimension
 13
8.061190231432441
 23
8.493389148238604
 33
0.0
 14
7.85619023143244
 24
10.6683891482386
 34
0.0
 50
180.0
100
AcDbRotatedDimension
1001
ACAD
1000
DSTYLE
1002
{
1070
   271
1070
     3
1070
   272
1070
     2
1070
    47
1040
0.0
1070
    48
1040
0.0
1002
}
  0
DIMENSION
  5
884
330
23
100
AcDbEntity
  8
Dimension (ANSI)
100
AcDbDimension
  2
*D21
 10
7.85619023143244
 20
11.45751588257606
 30
0.0
 11
8.494665201502085
 21
11.45751588257606
 31
0.0
 70
   160
  1
<>
 42
1.276949940139288
  3
Default (ANSI)
100
AcDbAlignedDimension
 13
9.133140171571728
 23
7.998234401994446
 33
0.0
 14
7.85619023143244
 24
10.6683891482386
 34
0.0
 50
180.0
100
AcDbRotatedDimension
1001
ACAD
1000
DSTYLE
1002
{
1070
   271
1070
     3
1070
   272
1070
     2
1070
    47
1040
0.0
1070
    48
1040
0.0
1002
}
  0
DIMENSION
  5
950
330
23
100
AcDbEntity
  8
Dimension (ANSI)
100
AcDbDimension
  2
*D22
 10
9.872213853479685
 20
6.181389148238603
 30
0.0
 11
9.872213853479685
 21
7.337389148238603
 31
0.0
 70
   160
  1
<>
 42
2.312
  3
Default (ANSI)
100
AcDbAlignedDimension
 13
8.061190231432441
 23
8.493389148238604
 33
0.0
 14
8.061190231432441
 24
6.181389148238603
 34
0.0
 50
90.0
100
AcDbRotatedDimension
1001
ACAD
1000
DSTYLE
1002
{
1070
   279
1070
     1
1070
   271
1070
     3
1070
   272
1070
     2
1070
    47
1040
0.0
1070
    48
1040
0.0
1002
}
  0
DIMENSION
  5
A30
330
23
100
AcDbEntity
  8
Dimension (ANSI)
100
AcDbDimension
  2
*D23
 10
11.73954824432001
 20
5.908389148238603
 30
0.0
 11
11.73954824432001
 21
7.820889148238603
 31
0.0
 70
   160
  1
<>
 42
3.825000000000001
  3
Default (ANSI)
100
AcDbAlignedDimension
 13
12.69523201503419
 23
9.733389148238604
 33
0.0
 14
12.69523201503419
 24
5.908389148238603
 34
0.0
 50
90.0
100
AcDbRotatedDimension
1001
ACAD
1000
DSTYLE
1002
{
1070
   279
1070
     1
1070
   271
1070
     3
1070
   272
1070
     2
1070
    47
1040
0.0
1070
    48
1040
0.0
1002
}
  0
DIMENSION
  5
B10
330
23
100
AcDbEntity
  8
Dimension (ANSI)
100
AcDbDimension
  2
*D24
 10
14.88434579202944
 20
5.938389148238603
 30
0.0
 11
14.88434579202944
 21
7.338389148238604
 31
0.0
 70
   160
  1
<>
 42
2.799999999999999
  3
Default (ANSI)
100
AcDbAlignedDimension
 13
13.44523201503428
 23
8.738389148238603
 33
0.0
 14
13.44523201503426
 24
5.938389148238604
 34
0.0
 50
90.0
100
AcDbRotatedDimension
1001
ACAD
1000
DSTYLE
1002
{
1070
   279
1070
     1
1070
   271
1070
     3
1070
   272
1070
     2
1070
    47
1040
0.0
1070
    48
1040
0.0
1002
}
  0
DIMENSION
  5
BF0
330
23
100
AcDbEntity
  8
Dimension (ANSI)
100
AcDbDimension
  2
*D25
 10
14.19523201503393
 20
12.38075135690002
 30
0.0
 11
13.44523201503393
 21
12.38075135690002
 31
0.0
 70
   160
  1
<>
 42
1.499999999999998
  3
Default (ANSI)
100
AcDbAlignedDimension
 13
12.69523201503393
 23
11.27838915217561
 33
0.0
 14
14.19523201503393
 24
11.27838915217561
 34
0.0
 50
180.0
100
AcDbRotatedDimension
1001
ACAD
1000
DSTYLE
1002
{
1070
   271
1070
     3
1070
   272
1070
     2
1070
    47
1040
0.0
1070
    48
1040
0.0
1002
}
  0
MTEXT
  5
CBC
102
{ACAD_REACTORS
330
CBD
102
}
330
23
100
AcDbEntity
  8
Symbol (ANSI)
100
AcDbMText
 10
5.347391841673998
 20
2.945438449042741
 30
0.0
 40
0.2400000029661524
 41
5.802204102043091
 71
     1
 72
     1
  1
{3/8-16 UNC THREADS AND HARDWARE}
  7
Note Text (ANSI)
 73
     1
 44
1.0
  0
LEADER
  5
CBD
330
23
100
AcDbEntity
  8
Symbol (ANSI)
100
AcDbLeader
  3
Default (ANSI)$7
 73
     0
 40
0.303022166270226
 41
5.777085363541191
 76
     3
 10
4.125645946631951
 20
4.578499493965927
 30
0.0
 10
5.248966644823604
 20
2.825438447559665
 30
0.0
 10
5.315895778681872
 20
2.825438447559665
 30
0.0
340
CBC
210
0.0
220
0.0
230
-1.0
213
0.0
223
-0.1200000014830762
233
0.0
1001
ACAD
1000
DSTYLE
1002
{
1070
    77
1070
     0
1002
}
  0
ENDSEC
  0
SECTION
  2
OBJECTS
  0
DICTIONARY
  5
C
330
0
100
AcDbDictionary
281
     1
  3
ACAD_COLOR
350
1C
  3
ACAD_GROUP
350
D
  3
ACAD_LAYOUT
350
1A
  3
ACAD_MATERIAL
350
1B
  3
ACAD_MLINESTYLE
350
17
  3
ACAD_PLOTSETTINGS
350
19
  3
ACAD_PLOTSTYLENAME
350
E
  3
ACAD_TABLESTYLE
350
1D
  3
AcDbVariableDictionary
350
D40
  0
DICTIONARY
  5
1C
102
{ACAD_REACTORS
330
C
102
}
330
C
100
AcDbDictionary
281
     1
  0
DICTIONARY
  5
D
102
{ACAD_REACTORS
330
C
102
}
330
C
100
AcDbDictionary
281
     1
  0
DICTIONARY
  5
1A
102
{ACAD_REACTORS
330
C
102
}
330
C
100
AcDbDictionary
281
     1
  3
Layout1
350
22
  3
Layout2
350
2A
  3
Model
350
26
  0
DICTIONARY
  5
1B
102
{ACAD_REACTORS
330
C
102
}
330
C
100
AcDbDictionary
281
     1
  0
DICTIONARY
  5
17
102
{ACAD_REACTORS
330
C
102
}
330
C
100
AcDbDictionary
281
     1
  3
Standard
350
18
  0
DICTIONARY
  5
19
102
{ACAD_REACTORS
330
C
102
}
330
C
100
AcDbDictionary
281
     1
  0
ACDBDICTIONARYWDFLT
  5
E
102
{ACAD_REACTORS
330
C
102
}
330
C
100
AcDbDictionary
281
     1
  3
Normal
350
F
100
AcDbDictionaryWithDefault
340
F
  0
DICTIONARY
  5
1D
102
{ACAD_REACTORS
330
C
102
}
330
C
100
AcDbDictionary
281
     1
  3
Standard
350
1E
  0
DICTIONARY
  5
D40
102
{ACAD_REACTORS
330
C
102
}
330
C
100
AcDbDictionary
281
     1
  3
CTABLESTYLE
350
D41
  0
LAYOUT
  5
22
102
{ACAD_REACTORS
330
1A
102
}
330
1A
100
AcDbPlotSettings
  1

  2

  4

  6

 40
0.0
 41
0.0
 42
0.0
 43
0.0
 44
0.0
 45
0.0
 46
0.0
 47
0.0
 48
0.0
 49
0.0
140
0.0
141
0.0
142
1.0
143
1.0
 70
   688
 72
     0
 73
     0
 74
     5
  7

 75
    16
147
1.0
 76
     0
 77
     2
 78
   300
148
0.0
149
0.0
100
AcDbLayout
  1
Layout1
 70
     1
 71
     1
 10
0.0
 20
0.0
 11
12.0
 21
9.0
 12
0.0
 22
0.0
 32
0.0
 14
0.0
 24
0.0
 34
0.0
 15
0.0
 25
0.0
 35
0.0
146
0.0
 13
0.0
 23
0.0
 33
0.0
 16
1.0
 26
0.0
 36
0.0
 17
0.0
 27
1.0
 37
0.0
 76
     0
330
1F
  0
LAYOUT
  5
2A
102
{ACAD_REACTORS
330
1A
102
}
330
1A
100
AcDbPlotSettings
  1

  2

  4

  6

 40
0.0
 41
0.0
 42
0.0
 43
0.0
 44
0.0
 45
0.0
 46
0.0
 47
0.0
 48
0.0
 49
0.0
140
0.0
141
0.0
142
1.0
143
1.0
 70
   688
 72
     0
 73
     0
 74
     5
  7

 75
    16
147
1.0
 76
     0
 77
     2
 78
   300
148
0.0
149
0.0
100
AcDbLayout
  1
Layout2
 70
     1
 71
     2
 10
0.0
 20
0.0
 11
12.0
 21
9.0
 12
0.0
 22
0.0
 32
0.0
 14
0.0
 24
0.0
 34
0.0
 15
0.0
 25
0.0
 35
0.0
146
0.0
 13
0.0
 23
0.0
 33
0.0
 16
1.0
 26
0.0
 36
0.0
 17
0.0
 27
1.0
 37
0.0
 76
     0
330
27
  0
LAYOUT
  5
26
102
{ACAD_REACTORS
330
1A
102
}
330
1A
100
AcDbPlotSettings
  1

  2

  4

  6

 40
0.0
 41
0.0
 42
0.0
 43
0.0
 44
0.0
 45
0.0
 46
0.0
 47
0.0
 48
0.0
 49
0.0
140
0.0
141
0.0
142
1.0
143
1.0
 70
  1712
 72
     0
 73
     0
 74
     0
  7

 75
     0
147
1.0
 76
     0
 77
     2
 78
   300
148
0.0
149
0.0
100
AcDbLayout
  1
Model
 70
     1
 71
     0
 10
0.0
 20
0.0
 11
12.0
 21
9.0
 12
0.0
 22
0.0
 32
0.0
 14
0.0
 24
0.0
 34
0.0
 15
0.0
 25
0.0
 35
0.0
146
0.0
 13
0.0
 23
0.0
 33
0.0
 16
1.0
 26
0.0
 36
0.0
 17
0.0
 27
1.0
 37
0.0
 76
     0
330
23
  0
MLINESTYLE
  5
18
102
{ACAD_REACTORS
330
17
102
}
330
17
100
AcDbMlineStyle
  2
STANDARD
 70
     0
  3

 62
   256
 51
90.0
 52
90.0
 71
     2
 49
0.5
 62
   256
  6
BYLAYER
 49
-0.5
 62
   256
  6
BYLAYER
  0
ACDBPLACEHOLDER
  5
F
102
{ACAD_REACTORS
330
E
102
}
330
E
  0
TABLESTYLE
  5
1E
102
{ACAD_REACTORS
330
1D
102
}
330
1D
100
AcDbTableStyle
  3
Standard
 70
     0
 71
     0
 40
0.06
 41
0.06
280
     0
281
     0
  7
Standard
140
0.18
170
     2
 62
     0
 63
     7
283
     0
274
    -2
284
     1
 64
     0
275
    -2
285
     1
 65
     0
276
    -2
286
     1
 66
     0
277
    -2
287
     1
 67
     0
278
    -2
288
     1
 68
     0
279
    -2
289
     1
 69
     0
  7
Standard
140
0.25
170
     5
 62
     0
 63
     7
283
     0
274
    -2
284
     1
 64
     0
275
    -2
285
     1
 65
     0
276
    -2
286
     1
 66
     0
277
    -2
287
     1
 67
     0
278
    -2
288
     1
 68
     0
279
    -2
289
     1
 69
     0
  7
Standard
140
0.18
170
     5
 62
     0
 63
     7
283
     0
274
    -2
284
     1
 64
     0
275
    -2
285
     1
 65
     0
276
    -2
286
     1
 66
     0
277
    -2
287
     1
 67
     0
278
    -2
288
     1
 68
     0
279
    -2
289
     1
 69
     0
  0
DICTIONARYVAR
  5
D41
102
{ACAD_REACTORS
330
D40
102
}
330
D40
100
DictionaryVariables
280
     0
  1
STANDARD
  0
ENDSEC
  0
EOF
